VERSION	0.00.00	1.03.00
FES_MODE	0
BPM_DEF	100.000	100.000	100.000	100.000
MET_DEF	4	4
RESOLUTION	384
CLK_DEF	384
COMPATIBLE_CODE	MA2

BPM	0	0	100.000
MET	0	0	4	4

TAP	2	0	2
TAP	2	24	4
TAP	2	48	2
TAP	2	72	4
TAP	2	96	3
TAP	2	120	5
TAP	2	144	3
TAP	2	168	5
TAP	2	192	2
TAP	2	216	4
TAP	2	240	2
TAP	2	264	4
TAP	2	288	3
TAP	2	312	5
TAP	2	336	3
TAP	2	360	5
TAP	3	0	4
TAP	3	24	5
TAP	3	48	4
TAP	3	72	5
TAP	3	96	3
TAP	3	120	4
TAP	3	144	3
TAP	3	168	4
TAP	3	192	2
TAP	3	216	3
TAP	3	240	2
TAP	3	264	3
TAP	3	288	2
TAP	3	312	4
TAP	3	336	3
TAP	3	360	4
TAP	4	0	3
TAP	4	0	4
TAP	4	48	5
TAP	4	96	3
TAP	4	96	4
TAP	4	144	2
TAP	4	192	3
TAP	4	192	4
TAP	4	240	5
TAP	4	288	3
TAP	4	288	4
TAP	4	336	1
TAP	5	0	2
TAP	5	0	3
TAP	5	48	4
TAP	5	96	2
TAP	5	96	3
TAP	5	144	1
TAP	5	192	2
TAP	5	192	3
TAP	5	240	4
TAP	5	288	3
TAP	5	288	5
TAP	6	0	3
TAP	6	0	4
TAP	6	48	2
TAP	6	96	3
TAP	6	96	4
TAP	6	144	5
TAP	6	192	3
TAP	6	192	4
TAP	6	240	2
TAP	6	288	3
TAP	6	288	4
TAP	6	336	6
TAP	7	0	4
TAP	7	0	5
TAP	7	48	3
TAP	7	96	4
TAP	7	96	5
TAP	7	144	6
TAP	7	192	4
TAP	7	192	5
TAP	7	240	3
TAP	7	288	2
TAP	7	288	4
TAP	8	0	3
TAP	8	0	4
TAP	8	48	5
TAP	8	72	4
TAP	8	96	5
TAP	8	144	3
TAP	8	144	6
TAP	8	192	2
TAP	8	216	3
TAP	8	240	2
TAP	8	264	3
TAP	8	288	2
TAP	8	336	1
TAP	8	336	4
TAP	9	0	2
TAP	9	0	3
TAP	9	48	4
TAP	9	72	3
TAP	9	96	4
TAP	9	144	2
TAP	9	144	5
TAP	9	192	3
TAP	9	240	6
TAP	9	288	1
TAP	9	288	7
TAP	10	0	3
TAP	10	0	4
TAP	10	48	2
TAP	10	72	3
TAP	10	96	2
TAP	10	144	1
TAP	10	144	4
TAP	10	192	5
TAP	10	216	4
TAP	10	240	5
TAP	10	264	4
TAP	10	288	5
TAP	10	336	3
TAP	10	360	4
TAP	11	0	3
TAP	11	48	2
TAP	11	72	3
TAP	11	96	2
TAP	11	144	1
TAP	11	144	4
TAP	11	192	2
TAP	11	192	5
TAP	11	240	6
TAP	11	288	1
TAP	11	288	7
TAP	12	0	2
TAP	12	0	4
TAP	12	48	6
TAP	12	96	3
TAP	12	96	5
TAP	12	144	1
TAP	12	192	2
TAP	12	192	4
TAP	12	240	6
TAP	12	288	3
TAP	12	288	5
TAP	12	336	1
TAP	13	0	2
TAP	13	0	4
TAP	13	48	5
STR	13	96	2
SXR	13	96	2	96	96	1
STR	13	96	4
SXL	13	96	4	96	96	5
TAP	13	144	1
TAP	14	0	3
TAP	14	0	5
TAP	14	48	1
TAP	14	96	2
TAP	14	96	4
TAP	14	144	6
TAP	14	192	3
TAP	14	192	5
TAP	14	240	1
TAP	14	288	2
TAP	14	288	4
TAP	14	336	6
TAP	15	0	3
TAP	15	0	5
TAP	15	48	2
STR	15	96	3
SXR	15	96	3	96	96	2
STR	15	96	5
SXL	15	96	5	96	96	6
TAP	15	144	6
TAP	16	0	5
TAP	16	24	4
TAP	16	48	5
TAP	16	72	3
TAP	16	96	4
TAP	16	120	3
TAP	16	144	4
TAP	16	168	2
TAP	16	192	3
TAP	16	216	2
TAP	16	240	3
TAP	16	264	1
TAP	16	288	3
TAP	16	312	2
TAP	16	336	3
TAP	16	360	1
TAP	17	0	4
TAP	17	24	2
TAP	17	48	3
TAP	17	72	1
TAP	17	96	5
TAP	17	120	3
TAP	17	144	4
TAP	17	168	2
TAP	17	192	6
TAP	17	216	4
TAP	17	240	5
TAP	17	264	3
TAP	17	288	5
TAP	17	312	4
TAP	17	336	6
TAP	17	360	6
TAP	18	0	2
TAP	18	24	3
TAP	18	48	2
TAP	18	72	4
TAP	18	96	3
TAP	18	120	4
TAP	18	144	3
TAP	18	168	5
TAP	18	192	4
TAP	18	216	5
TAP	18	240	4
TAP	18	264	6
TAP	18	288	4
TAP	18	312	5
TAP	18	336	3
TAP	18	360	4
TAP	19	0	3
TAP	19	24	3
TAP	19	72	2
TAP	19	72	4
TAP	19	96	2
TAP	19	96	4
TAP	19	144	1
TAP	19	144	5
TAP	19	192	0
TAP	19	192	6
TAP	19	240	1
TAP	19	240	7
HLD	19	288	0	96
HLD	19	288	6	144
HLD	20	12	0	36
STR	20	60	0
SSL	20	60	0	96	612	4
STR	20	60	6
SI_	20	60	6	96	132	2
STR	21	0	2
SI_	21	0	2	96	144	6
TAP	22	96	3
TAP	22	96	4
TAP	22	144	5
TAP	22	192	3
TAP	22	192	4
TAP	22	240	2
TAP	22	288	3
TAP	22	288	4
TAP	22	336	5
TAP	23	0	3
TAP	23	0	4
TAP	23	48	2
TAP	23	96	3
TAP	23	96	4
TAP	23	144	4
TAP	23	144	5
TAP	23	192	3
TAP	23	192	4
TAP	23	240	2
TAP	23	240	3
TAP	23	288	3
TAP	23	288	4
TAP	23	336	4
TAP	23	336	5
TAP	24	0	3
TAP	24	0	4
TAP	24	48	2
TAP	24	48	5
TAP	24	96	3
HLD	24	96	4	12
TAP	24	144	5
HLD	24	192	3	12
HLD	24	192	4	18
HLD	24	240	2	12
HLD	24	288	3	12
HLD	24	288	4	6
HLD	24	336	5	12
HLD	25	0	3	6
HLD	25	0	4	8
HLD	25	48	2	8
HLD	25	96	3	8
HLD	25	97	4	11
HLD	25	144	4	8
HLD	25	144	5	16
HLD	25	192	4	24
HLD	25	193	3	15
HLD	25	240	2	16
HLD	25	240	3	12
HLD	25	288	3	8
HLD	25	289	4	15
HLD	25	336	4	8
HLD	25	337	5	15
HLD	26	0	3	9
STR	26	0	4
SUL	26	0	4	96	576	3
HLD	26	48	2	8
HLD	26	48	5	16
TAP	26	96	3
TAP	26	96	4
TTP	26	324	7	B	0	M1
TTP	26	330	6	B	0	M1
TTP	26	336	5	B	0	M1
TTP	27	96	0	B	0	M1
TTP	27	102	1	E	0	M1
TTP	27	108	2	E	0	M1
THO	27	204	0	84	C	1	M1
XTP	28	0	0
XTP	28	12	7
XTP	28	24	0
XTP	28	36	7
XTP	28	48	0
XTP	28	60	7
XTP	28	72	0
XTP	28	84	7
BRK	28	96	1
TAP	28	108	2
TAP	28	120	3
TAP	28	132	4
TAP	28	144	5
TAP	28	156	6
TAP	28	168	7
TAP	28	180	0
BRK	28	192	1
TAP	28	208	2
TAP	28	224	3
TAP	28	240	4
TAP	28	256	5
TAP	28	272	6
BRK	28	288	7
TAP	28	314	0
TAP	28	338	1
TAP	28	362	2
BRK	29	0	3
TAP	29	36	4
TAP	29	72	5
HLD	29	96	4	12
HLD	29	96	6	12
HLD	29	120	4	12
HLD	29	120	6	12
HLD	29	144	4	12
HLD	29	144	6	12
HLD	29	168	4	12
HLD	29	168	6	12
HLD	29	192	3	12
HLD	29	192	4	12
HLD	29	216	3	12
HLD	29	216	4	12
HLD	29	240	3	12
HLD	29	240	4	12
HLD	29	264	3	12
HLD	29	264	4	12
HLD	29	288	1	12
HLD	29	288	3	12
HLD	29	312	1	12
HLD	29	312	3	12
HLD	29	336	1	12
HLD	29	336	3	12
HLD	29	360	1	12
HLD	29	360	3	12
HLD	30	0	2	12
HLD	30	0	4	12
HLD	30	24	2	12
HLD	30	24	4	12
HLD	30	48	2	12
HLD	30	48	4	12
XHO	30	96	6	12
HLD	30	108	4	12
HLD	30	120	6	12
HLD	30	132	4	12
HLD	30	144	5	12
HLD	30	156	3	12
HLD	30	168	5	12
HLD	30	180	3	12
XHO	30	192	4	12
HLD	30	204	2	12
HLD	30	216	4	12
HLD	30	228	2	12
HLD	30	240	3	12
HLD	30	252	1	12
HLD	30	264	3	12
HLD	30	276	1	12
XHO	30	288	4	12
HLD	30	300	0	12
HLD	30	312	4	12
HLD	30	324	0	12
HLD	30	336	5	12
HLD	30	348	1	12
HLD	30	360	5	12
HLD	30	372	1	12
XHO	31	0	6	12
HLD	31	12	2	12
HLD	31	24	6	12
HLD	31	36	2	12
HLD	31	48	7	12
XHO	31	96	1	12
HLD	31	108	3	12
HLD	31	120	1	12
HLD	31	132	3	12
HLD	31	144	2	12
HLD	31	156	4	12
HLD	31	168	2	12
HLD	31	180	4	12
XHO	31	192	3	12
HLD	31	204	5	12
HLD	31	216	3	12
HLD	31	228	5	12
HLD	31	240	4	12
HLD	31	252	6	12
HLD	31	264	4	12
HLD	31	276	6	12
XHO	31	288	5	12
HLD	31	300	7	12
HLD	31	312	5	12
HLD	31	324	7	12
HLD	31	336	4	12
HLD	31	348	6	12
HLD	31	360	4	12
HLD	31	372	6	12
HLD	32	0	3	12
HLD	32	12	5	12
HLD	32	24	3	12
HLD	32	36	5	12
HLD	32	48	4	12
XHO	32	96	6	12
HLD	32	108	0	12
HLD	32	120	6	12
HLD	32	132	0	12
HLD	32	144	4	12
HLD	32	156	2	12
HLD	32	168	4	12
HLD	32	180	2	12
XHO	32	192	7	12
HLD	32	204	1	12
HLD	32	216	7	12
HLD	32	228	1	12
HLD	32	240	5	12
HLD	32	252	3	12
HLD	32	264	5	12
HLD	32	276	3	12
XHO	32	288	4	12
HLD	32	300	2	12
HLD	32	312	4	12
HLD	32	324	2	12
HLD	32	336	6	12
HLD	32	348	0	12
HLD	32	360	6	12
HLD	32	372	0	12
XHO	33	0	5	12
HLD	33	12	1	12
HLD	33	24	4	12
HLD	33	36	2	12
HLD	33	48	3	12
XHO	33	96	1	12
HLD	33	108	4	12
HLD	33	120	1	12
HLD	33	132	4	12
HLD	33	144	2	12
HLD	33	156	3	12
HLD	33	168	2	12
HLD	33	180	3	12
XHO	33	192	1	12
HLD	33	204	5	12
HLD	33	216	1	12
HLD	33	228	5	12
HLD	33	240	2	12
HLD	33	252	6	12
HLD	33	264	2	12
HLD	33	276	6	12
XHO	33	288	4	12
HLD	33	300	5	12
HLD	33	312	4	12
HLD	33	324	5	12
HLD	33	336	3	12
HLD	33	348	6	12
HLD	33	360	2	12
HLD	33	372	7	12
XST	34	0	1
SI_	34	0	1	96	24	5
BRK	34	96	1
BST	34	96	6
SI_	34	96	6	96	24	2
TTP	34	97	0	C	1	M1
BST	34	192	1
SI_	34	192	1	96	24	5
BRK	34	192	6
TTP	34	193	0	C	1	M1
BRK	34	288	1
BST	34	288	6
SI_	34	288	6	96	24	2
TTP	34	289	0	C	1	M1
BST	35	0	1
SI_	35	0	1	96	24	5
BRK	35	0	6
TTP	35	1	0	C	1	M1
BRK	35	96	1
BST	35	96	6
SI_	35	96	6	96	24	2
TTP	35	97	0	C	1	M1
BST	35	192	1
SI_	35	192	1	96	24	5
BRK	35	192	6
TTP	35	193	0	C	1	M1
BRK	35	288	1
BST	35	288	6
SI_	35	288	6	96	24	2
TTP	35	290	0	C	1	M1
BST	36	0	1
SV_	36	0	1	96	24	6
BRK	36	0	6
TTP	36	1	0	C	1	M1
TTP	36	96	0	C	1	M1
BRK	36	96	1
BST	36	96	5
SV_	36	96	5	96	24	2
TTP	36	192	0	C	1	M1
BST	36	192	1
SV_	36	192	1	96	24	6
BRK	36	192	5
TTP	36	288	0	C	1	M1
BRK	36	288	1
BST	36	288	5
SV_	36	288	5	96	24	2
TTP	37	0	0	C	1	M1
BST	37	0	1
SV_	37	0	1	96	24	6
BRK	37	0	5
TTP	37	96	0	C	1	M1
BRK	37	96	1
BST	37	96	5
SV_	37	96	5	96	24	2
TTP	37	192	0	C	1	M1
BST	37	192	1
SV_	37	192	1	96	24	6
BRK	37	192	5
TTP	37	288	0	C	1	M1
BRK	37	288	1
BST	37	288	5
SV_	37	288	5	96	24	2
BST	38	0	0
TTP	38	0	0	C	1	M1
SI_	38	0	0	96	24	4
BRK	38	0	5
BRK	38	96	0
THO	38	96	0	0	C	1	M1
BST	38	96	4
SI_	38	96	4	96	24	0
TAP	38	144	3
TAP	38	144	5
THO	38	192	0	0	C	1	M1
BST	38	192	1
SI_	38	192	1	96	24	5
BRK	38	192	4
THO	38	288	0	0	C	1	M1
BRK	38	288	1
BST	38	288	5
SI_	38	288	5	96	24	1
TAP	38	336	4
TAP	38	336	6
THO	39	0	0	0	C	1	M1
BST	39	0	2
SI_	39	0	2	96	24	6
BRK	39	0	5
THO	39	96	0	0	C	1	M1
BRK	39	96	2
BST	39	96	6
SI_	39	96	6	96	24	2
TAP	39	144	5
TAP	39	144	7
THO	39	192	0	0	C	1	M1
BST	39	192	3
SI_	39	192	3	96	24	7
BRK	39	192	6
THO	39	288	0	0	C	1	M1
BRK	39	288	3
BST	39	288	7
SI_	39	288	7	96	24	3
TAP	39	336	0
TAP	39	336	6
THO	40	0	0	0	C	1	M1
BST	40	0	4
SI_	40	0	4	96	24	0
BRK	40	0	7
BST	40	96	0
THO	40	96	0	0	C	1	M1
SI_	40	96	0	96	24	4
BRK	40	96	4
TAP	40	144	1
TAP	40	144	7
BRK	40	192	0
THO	40	192	0	0	C	1	M1
BST	40	192	5
SI_	40	192	5	96	24	1
THO	40	288	0	0	C	1	M1
BST	40	288	1
SI_	40	288	1	96	24	5
BRK	40	288	5
TAP	40	336	0
TAP	40	336	2
THO	41	0	0	0	C	1	M1
BRK	41	0	1
BST	41	0	6
SI_	41	0	6	96	24	2
THO	41	96	0	0	C	1	M1
BST	41	96	2
SI_	41	96	2	96	24	6
BRK	41	96	6
TAP	41	144	1
TAP	41	144	3
THO	41	192	0	0	C	1	M1
BRK	41	192	2
BST	41	192	7
SI_	41	192	7	96	24	3
THO	41	288	0	0	C	1	M1
BRK	41	288	3
BRK	41	288	7
TAP	41	336	2
TAP	41	336	4
TTP	42	0	0	B	0	M1
THO	42	0	0	0	C	1	M1
TTP	42	0	0	E	0	M1
TTP	42	0	1	B	0	M1
TTP	42	0	1	E	0	M1
TTP	42	0	2	B	0	M1
TTP	42	0	2	E	0	M1
TTP	42	0	3	B	0	M1
TTP	42	0	3	E	0	M1
TTP	42	0	4	B	0	M1
TTP	42	0	4	E	0	M1
TTP	42	0	5	B	0	M1
TTP	42	0	5	E	0	M1
TTP	42	0	6	B	0	M1
TTP	42	0	6	E	0	M1
TTP	42	0	7	B	0	M1
TTP	42	0	7	E	0	M1
HLD	42	96	3	48
HLD	42	96	5	48
HLD	42	192	2	48
HLD	42	192	4	48
HLD	42	288	3	48
HLD	42	288	5	72
HLD	43	0	2	48
HLD	43	0	4	48
HLD	43	96	3	48
HLD	43	96	5	48
HLD	43	192	2	48
HLD	43	192	4	48
HLD	43	288	3	48
HLD	43	288	5	72
HLD	44	0	2	48
HLD	44	0	4	48
HLD	44	96	4	48
HLD	44	96	5	48
HLD	44	192	2	48
HLD	44	192	3	48
HLD	44	288	4	48
HLD	44	288	5	72
HLD	45	0	2	48
HLD	45	0	3	48
HLD	45	96	4	48
HLD	45	96	5	48
HLD	45	192	2	48
HLD	45	192	3	48
TAP	45	288	3
TAP	45	288	4
TTP	46	0	6	E	0	M1
TTP	46	48	0	C	0	M1
TTP	46	96	2	E	0	M1
STR	46	228	0
SI_	46	228	0	96	36	4
HLD	46	240	5	12
HLD	46	252	3	12
HLD	46	264	6	12
HLD	46	276	2	12
HLD	46	288	7	6
HLD	46	300	1	6
HLD	46	312	0	4
TTP	46	324	0	B	0	M1
TTP	46	336	0	C	0	M1
TTP	46	348	4	B	0	M1

T_REC_TAP	287
T_REC_BRK	36
T_REC_XTP	8
T_REC_HLD	190
T_REC_XHO	14
T_REC_STR	9
T_REC_BST	30
T_REC_XST	1
T_REC_TTP	44
T_REC_THO	17
T_REC_SLD	40
T_REC_ALL	676
T_NUM_TAP	349
T_NUM_BRK	66
T_NUM_HLD	221
T_NUM_SLD	40
T_NUM_ALL	676
T_JUDGE_TAP	415
T_JUDGE_HLD	264
T_JUDGE_SLD	40
T_JUDGE_ALL	719
TTM_EACHPAIRS	136
TTM_SCR_TAP	174500
TTM_SCR_BRK	171600
TTM_SCR_HLD	221000
TTM_SCR_SLD	60000
TTM_SCR_ALL	627100
TTM_SCR_S	601900
TTM_SCR_SS	620500
TTM_RAT_ACV	10106

