VERSION	0.00.00	1.03.00
FES_MODE	0
BPM_DEF	100.000	100.000	100.000	100.000
MET_DEF	4	4
RESOLUTION	384
CLK_DEF	384
COMPATIBLE_CODE	MA2

BPM	0	0	100.000
MET	0	0	4	4

HLD	2	0	5	192
HLD	2	192	4	192
HLD	3	0	3	192
TAP	3	192	2
XTP	3	288	1
XTP	3	288	4
TAP	4	0	2
TAP	4	48	2
TAP	4	96	3
TAP	4	144	4
TAP	4	192	5
TAP	4	216	5
TAP	4	240	4
TAP	4	288	4
TAP	4	288	6
TAP	4	336	5
TAP	4	360	5
TAP	5	0	3
TAP	5	48	4
TAP	5	72	4
HLD	5	96	2	48
TAP	5	144	3
TAP	5	192	2
TAP	5	240	1
TAP	5	288	1
TAP	5	288	3
TAP	6	0	2
TAP	6	48	2
TAP	6	96	3
TAP	6	144	4
TAP	6	192	5
TAP	6	216	5
TAP	6	240	4
TAP	6	288	4
TAP	6	288	6
TAP	6	336	5
TAP	6	360	5
TAP	7	0	3
TAP	7	48	4
TAP	7	72	4
HLD	7	96	2	48
TAP	7	144	3
TAP	7	192	2
TAP	7	240	1
TAP	7	288	0
TAP	7	288	4
STR	8	0	1
SCR	8	0	1	96	72	4
TAP	8	48	1
STR	8	192	5
SCR	8	192	5	96	72	0
TAP	8	240	5
STR	9	0	1
SI_	9	0	1	96	72	5
TAP	9	48	1
TAP	9	192	7
TAP	9	288	7
STR	10	0	6
SCL	10	0	6	96	72	3
TAP	10	48	6
STR	10	192	2
SCL	10	192	2	96	72	7
TAP	10	240	2
STR	11	0	6
SI_	11	0	6	96	72	2
TAP	11	48	6
TAP	11	192	0
TAP	11	288	1
TAP	11	288	5
HLD	12	0	6	48
TAP	12	48	4
TAP	12	72	4
TAP	12	96	5
TAP	12	144	3
TAP	12	192	4
TAP	12	216	4
TAP	12	240	2
TAP	12	288	1
TAP	12	288	3
TAP	12	336	2
TAP	12	360	2
TAP	13	0	4
TAP	13	48	3
TAP	13	72	3
HLD	13	96	5	48
TAP	13	144	4
TAP	13	192	5
TAP	13	240	6
TAP	13	288	5
TAP	13	288	7
HLD	14	0	6	48
TAP	14	48	4
TAP	14	72	4
TAP	14	96	5
TAP	14	144	3
TAP	14	192	4
TAP	14	216	4
TAP	14	240	2
TAP	14	288	1
TAP	14	288	3
TAP	14	336	2
TAP	14	360	2
TAP	15	0	4
TAP	15	48	3
TAP	15	72	3
HLD	15	96	5	48
TAP	15	144	4
TAP	15	192	5
TAP	15	240	2
TAP	15	240	6
TAP	15	288	2
TAP	15	288	6
STR	16	0	7
SI_	16	0	7	96	72	4
TAP	16	48	7
STR	16	192	3
SI_	16	192	3	96	72	0
TAP	16	240	3
STR	17	0	6
SI_	17	0	6	96	72	1
TAP	17	48	6
STR	17	192	2
SI_	17	192	2	96	72	5
TAP	17	240	2
TAP	18	0	7
HLD	18	48	7	96
TAP	18	96	3
HLD	18	144	3	96
TAP	18	192	5
HLD	18	240	5	96
TAP	18	288	1
HLD	18	336	1	48
TAP	19	0	3
TAP	19	24	3
TAP	19	72	2
TAP	19	72	4
TAP	19	96	2
TAP	19	96	4
TAP	19	144	3
TAP	19	144	5
TAP	19	192	0
TAP	19	192	7
TAP	19	240	1
TAP	19	240	6
HLD	19	288	2	96
HLD	19	288	5	108
STR	20	60	0
SUR	20	60	0	96	612	3
STR	20	60	7
SI_	20	60	7	96	612	4
TAP	22	96	2
TAP	22	144	2
TAP	22	192	3
TAP	22	240	4
TAP	22	288	5
TAP	22	312	5
TAP	22	336	4
TAP	23	0	4
TAP	23	0	6
TAP	23	48	5
TAP	23	72	5
TAP	23	96	3
TAP	23	144	4
TAP	23	168	4
HLD	23	192	2	48
TAP	23	240	3
TAP	23	288	2
TAP	23	336	1
TAP	24	0	1
TAP	24	0	3
TAP	24	96	1
HLD	24	144	2	0
STR	24	192	2
SSL	24	192	2	96	480	6
HLD	24	192	3	0
STR	26	0	2
SXR	26	0	2	96	1440	3
TTP	26	324	7	E	0	M1
TTP	26	330	6	B	0	M1
TTP	26	336	5	B	0	M1
TTP	27	96	6	E	0	M1
TTP	27	102	5	B	0	M1
TTP	27	108	4	B	0	M1
TTP	27	204	7	E	0	M1
TTP	27	210	6	B	0	M1
TTP	27	216	5	B	0	M1
TTP	27	288	6	E	0	M1
TTP	27	294	5	B	0	M1
TTP	27	300	4	B	0	M1
THO	28	0	0	48	C	0	M1
HLD	28	96	7	96
XHO	28	224	6	64
XHO	28	320	5	64
HLD	29	96	7	96
XHO	29	224	6	64
XHO	29	320	5	64
TAP	30	96	1
TAP	30	96	3
TAP	30	120	2
TAP	30	144	3
TAP	30	144	4
TAP	30	168	2
TAP	30	192	1
TAP	30	192	3
TAP	30	240	0
TAP	30	288	4
TAP	30	288	6
TAP	30	312	5
TAP	30	336	3
TAP	30	336	4
TAP	30	360	5
TAP	31	0	4
TAP	31	0	6
TAP	31	48	7
TTP	31	96	1	E	0	M1
TTP	31	108	0	B	0	M1
TTP	31	120	7	B	0	M1
TTP	31	132	7	E	0	M1
TTP	31	144	3	E	0	M1
TTP	31	156	3	B	0	M1
TTP	31	168	4	B	0	M1
TTP	31	180	5	E	0	M1
TTP	31	192	0	C	0	M1
TAP	31	240	7
TAP	31	288	0
TAP	31	288	1
TAP	31	312	2
TAP	31	336	3
TAP	31	336	4
TAP	31	360	2
TAP	32	0	0
TAP	32	0	1
TAP	32	48	7
TAP	32	96	6
TAP	32	96	7
TAP	32	120	5
TAP	32	144	3
TAP	32	144	4
TAP	32	168	5
TAP	32	192	6
TAP	32	192	7
TAP	32	240	0
TAP	32	288	1
TAP	32	288	3
TAP	32	312	2
TAP	32	336	3
TAP	32	336	4
TAP	32	360	5
TAP	33	0	4
TAP	33	0	6
TAP	33	48	7
TAP	33	96	4
TAP	33	96	6
TAP	33	120	5
TAP	33	144	3
TAP	33	144	4
TAP	33	168	2
TAP	33	192	1
TAP	33	192	3
TAP	33	240	0
TAP	33	288	1
TAP	33	288	6
STR	34	0	7
SI_	34	0	7	96	48	4
BST	34	96	0
SI_	34	96	0	96	48	3
BST	34	192	5
SI_	34	192	5	96	48	2
BST	34	288	6
SI_	34	288	6	96	48	1
BST	35	0	3
SI_	35	0	3	96	48	0
BST	35	96	4
SI_	35	96	4	96	48	7
BST	35	192	1
SI_	35	192	1	96	48	6
BST	35	288	2
SI_	35	288	2	96	48	5
BST	36	0	0
SI_	36	0	0	96	48	5
BST	36	96	6
SI_	36	96	6	96	48	3
BST	36	192	4
SI_	36	192	4	96	48	1
BST	36	288	2
SI_	36	288	2	96	48	7
BST	37	0	0
SI_	37	0	0	96	48	5
BST	37	96	6
SI_	37	96	6	96	48	3
BST	37	192	4
SI_	37	192	4	96	48	7
BRK	37	288	2
BST	38	0	0
SV_	38	0	0	96	48	5
BST	38	96	1
SV_	38	96	1	96	48	6
BST	38	192	2
SV_	38	192	2	96	48	7
BST	38	288	3
SV_	38	288	3	96	48	0
BST	39	0	4
SV_	39	0	4	96	48	1
BST	39	96	5
SV_	39	96	5	96	48	2
BST	39	192	6
SV_	39	192	6	96	48	3
BST	39	288	7
SV_	39	288	7	96	48	4
BST	40	0	1
SV_	40	0	1	96	48	3
BST	40	96	2
SV_	40	96	2	96	48	4
BST	40	192	3
SV_	40	192	3	96	48	5
BST	40	288	4
SV_	40	288	4	96	48	6
BST	41	0	5
SV_	41	0	5	96	48	7
BST	41	96	6
SV_	41	96	6	96	48	0
BST	41	192	7
SI_	41	192	7	96	48	3
BRK	41	288	0
BRK	42	0	1
BRK	42	0	6
HLD	42	96	5	96
HLD	42	288	2	96
TAP	42	288	3
HLD	43	96	5	96
HLD	43	288	2	96
TAP	43	288	3
HLD	44	96	6	96
HLD	44	288	1	96
HLD	44	288	3	96
HLD	45	96	7	96
XTP	45	288	1
XTP	45	288	6
TTP	46	0	6	E	0	M1
TTP	46	48	0	C	0	M1
TTP	46	96	2	E	0	M1
HLD	46	228	7	60
TAP	46	264	6
TAP	46	276	5
TAP	46	288	4
BRK	46	300	3
TAP	46	312	2
TAP	46	324	1
TAP	46	336	0
TAP	46	348	7

T_REC_TAP	195
T_REC_BRK	5
T_REC_XTP	4
T_REC_HLD	29
T_REC_XHO	4
T_REC_STR	15
T_REC_BST	29
T_REC_XST	0
T_REC_TTP	24
T_REC_THO	1
T_REC_SLD	44
T_REC_ALL	350
T_NUM_TAP	238
T_NUM_BRK	34
T_NUM_HLD	34
T_NUM_SLD	44
T_NUM_ALL	350
T_JUDGE_TAP	272
T_JUDGE_HLD	120
T_JUDGE_SLD	44
T_JUDGE_ALL	436
TTM_EACHPAIRS	45
TTM_SCR_TAP	119000
TTM_SCR_BRK	88400
TTM_SCR_HLD	34000
TTM_SCR_SLD	66000
TTM_SCR_ALL	307400
TTM_SCR_S	294900
TTM_SCR_SS	304000
TTM_RAT_ACV	10111

