VERSION	0.00.00	1.03.00
FES_MODE	0
BPM_DEF	100.000	100.000	100.000	100.000
MET_DEF	4	4
RESOLUTION	384
CLK_DEF	384
COMPATIBLE_CODE	MA2

BPM	0	0	100.000
MET	0	0	4	4

HLD	4	0	2	96
TAP	4	96	3
HLD	4	192	5	96
TAP	4	288	4
HLD	5	0	2	96
HLD	5	96	3	96
HLD	5	192	4	96
TAP	5	288	5
HLD	6	0	6	96
TAP	6	96	7
HLD	6	192	1	96
TAP	6	288	0
HLD	7	0	6	96
HLD	7	96	7	96
HLD	7	192	0	96
TAP	7	288	1
TAP	8	0	2
TAP	8	96	2
TAP	8	96	3
TAP	8	192	5
TAP	8	288	4
TAP	8	288	5
TAP	9	0	2
TAP	9	96	2
TAP	9	96	3
TAP	9	192	4
TAP	9	288	3
TAP	9	288	5
TAP	10	0	6
TAP	10	96	6
TAP	10	96	7
TAP	10	192	1
TAP	10	288	0
TAP	10	288	1
TAP	11	0	6
TAP	11	96	6
TAP	11	96	7
TAP	11	192	0
TAP	11	192	7
BRK	11	288	1
BRK	11	288	6
TAP	12	0	2
TAP	12	48	2
TAP	12	96	3
TAP	12	192	5
TAP	12	240	5
TAP	12	288	4
TAP	13	0	2
TAP	13	48	2
TAP	13	96	3
TAP	13	144	3
TAP	13	192	4
TAP	13	240	4
TAP	13	288	3
TAP	13	288	5
TAP	14	0	6
TAP	14	48	6
TAP	14	96	7
TAP	14	192	1
TAP	14	240	1
TAP	14	288	0
TAP	15	0	6
TAP	15	48	6
TAP	15	96	7
TAP	15	144	7
TAP	15	192	0
TAP	15	240	0
TAP	15	288	1
TAP	15	288	6
HLD	16	0	2	96
HLD	16	96	3	96
HLD	16	192	4	96
XTP	16	288	5
HLD	17	0	6	96
HLD	17	96	7	96
HLD	17	192	0	96
XTP	17	288	1
HLD	18	0	2	96
HLD	18	96	3	96
HLD	18	192	4	96
XTP	18	288	5
TAP	19	0	3
TAP	19	0	6
TAP	19	96	1
TAP	19	96	4
TAP	19	192	2
TAP	19	192	5
TTP	19	288	0	C	0	L1
XST	20	96	0
SSL	20	96	0	96	480	4
SSR	20	96	0	96	480	4
TTP	22	96	2	B	0	L1
TTP	22	192	0	B	0	L1
TTP	22	192	1	E	0	L1
TTP	22	288	5	B	0	L1
TTP	23	0	7	B	0	L1
TTP	23	0	7	E	0	L1
TTP	23	96	2	B	0	L1
TTP	23	192	3	B	0	L1
TTP	23	288	4	B	0	L1
TTP	24	0	5	B	0	L1
XST	24	96	7
SSL	24	96	7	96	480	3
SSR	24	96	7	96	480	3
XTP	26	336	2
XTP	26	336	3
XHO	27	96	2	48
XHO	27	96	3	48
XTP	27	216	2
XTP	27	216	3
XHO	27	288	2	96
XHO	27	288	3	96
TAP	28	96	1
TAP	28	144	1
TAP	28	192	0
TAP	28	240	0
TAP	28	288	7
TAP	28	336	7
TAP	29	0	6
TAP	29	48	6
TAP	29	96	5
TAP	29	120	5
TAP	29	144	5
TAP	29	192	4
TAP	29	216	4
TAP	29	240	4
TAP	29	288	3
TAP	29	312	3
TAP	29	336	3
BRK	30	0	2
BRK	30	0	5
TAP	30	96	1
TAP	30	144	0
TAP	30	144	1
TAP	30	192	2
TAP	30	216	2
TAP	30	240	2
TAP	30	288	3
TAP	30	336	2
TAP	30	336	3
TAP	31	0	1
TAP	31	0	4
TAP	31	96	5
TAP	31	144	4
TAP	31	144	5
TAP	31	192	6
TAP	31	216	6
TAP	31	240	6
TAP	31	288	7
TAP	31	336	6
TAP	31	336	7
TAP	32	0	0
TAP	32	0	5
TAP	32	96	0
TAP	32	96	1
TAP	32	144	2
TAP	32	144	7
TAP	32	192	3
TAP	32	216	3
TAP	32	240	3
TAP	32	288	4
TAP	32	288	5
TAP	32	336	3
TAP	32	336	6
TAP	33	0	7
TAP	33	24	7
TAP	33	48	7
TAP	33	96	0
TAP	33	96	7
TAP	33	144	1
TAP	33	144	6
TAP	33	192	2
TAP	33	216	2
TAP	33	240	2
TAP	33	288	4
TAP	33	336	3
TAP	33	336	4
BRK	34	0	2
BRK	34	0	5
TTP	34	96	2	B	0	L1
TTP	34	96	3	B	0	L1
TTP	34	192	0	B	0	L1
TTP	34	192	1	B	0	L1
TTP	34	288	6	B	0	L1
TTP	34	288	7	B	0	L1
TTP	35	0	4	B	0	L1
TTP	35	0	5	B	0	L1
TTP	35	96	2	B	0	L1
TTP	35	96	3	B	0	L1
TTP	35	192	0	B	0	L1
TTP	35	192	1	B	0	L1
TTP	35	288	6	B	0	L1
TTP	35	288	7	B	0	L1
TTP	36	0	0	C	1	L1
TTP	36	96	0	B	0	L1
TTP	36	96	7	B	0	L1
TTP	36	192	1	B	0	L1
TTP	36	192	2	B	0	L1
TTP	36	288	3	B	0	L1
TTP	36	288	4	B	0	L1
TTP	37	0	5	B	0	L1
TTP	37	0	6	B	0	L1
TTP	37	96	0	B	0	L1
TTP	37	96	7	B	0	L1
TTP	37	192	1	B	0	L1
TTP	37	192	2	B	0	L1
TTP	37	288	3	B	0	L1
TTP	37	288	4	B	0	L1
TTP	38	0	0	C	1	L1
XST	38	96	7
SCL	38	96	7	96	96	4
STR	38	288	3
SCL	38	288	3	96	96	0
STR	39	96	7
SCL	39	96	7	96	96	4
TAP	39	288	3
TAP	40	0	3
TAP	40	0	4
STR	40	96	2
SCR	40	96	2	96	96	5
STR	40	288	6
SCR	40	288	6	96	96	1
STR	41	96	2
SCR	41	96	2	96	96	5
TAP	41	288	6
BRK	42	0	0
BRK	42	0	7
HLD	42	96	6	96
TAP	42	192	7
HLD	42	288	1	96
TAP	43	0	0
HLD	43	96	6	96
TAP	43	192	7
TAP	43	288	0
TAP	44	0	1
TAP	44	0	7
HLD	44	96	2	96
TAP	44	192	3
HLD	44	288	5	96
TAP	45	0	4
TAP	45	96	3
TAP	45	192	3
TAP	45	192	4
TAP	45	288	2
TAP	45	288	5
TTP	46	96	0	C	0	L1
XST	46	240	7
SI_	46	240	7	96	48	3

T_REC_TAP	143
T_REC_BRK	8
T_REC_XTP	7
T_REC_HLD	24
T_REC_XHO	4
T_REC_STR	5
T_REC_BST	0
T_REC_XST	4
T_REC_TTP	42
T_REC_THO	0
T_REC_SLD	11
T_REC_ALL	248
T_NUM_TAP	201
T_NUM_BRK	8
T_NUM_HLD	28
T_NUM_SLD	11
T_NUM_ALL	248
T_JUDGE_TAP	209
T_JUDGE_HLD	108
T_JUDGE_SLD	11
T_JUDGE_ALL	328
TTM_EACHPAIRS	38
TTM_SCR_TAP	100500
TTM_SCR_BRK	20800
TTM_SCR_HLD	28000
TTM_SCR_SLD	16500
TTM_SCR_ALL	165800
TTM_SCR_S	160050
TTM_SCR_SS	165000
TTM_RAT_ACV	10048

