VERSION	0.00.00	1.03.00
FES_MODE	0
BPM_DEF	100.000	100.000	100.000	100.000
MET_DEF	4	4
RESOLUTION	384
CLK_DEF	384
COMPATIBLE_CODE	MA2

BPM	0	0	100.000
MET	0	0	4	4

TAP	4	0	0
TAP	4	192	0
TAP	5	0	0
TAP	6	0	7
TAP	6	192	7
TAP	7	0	7
TAP	8	0	0
TAP	8	192	1
TAP	9	0	2
TAP	9	192	3
TAP	9	192	4
TAP	10	0	4
TAP	10	192	5
TAP	11	0	6
TAP	11	192	0
TAP	11	192	7
TAP	12	0	7
TAP	12	96	7
TAP	12	192	7
TAP	13	0	6
TAP	13	96	6
TAP	13	192	6
TAP	14	0	5
TAP	14	96	5
TAP	14	192	5
TAP	15	0	4
TAP	15	96	4
TAP	15	192	3
TAP	15	192	4
TAP	16	0	3
TAP	16	96	3
TAP	16	192	3
TAP	17	0	2
TAP	17	96	2
TAP	17	192	2
TAP	18	0	1
TAP	18	96	1
TAP	18	192	1
TAP	19	0	0
TAP	19	96	0
TAP	19	192	0
TAP	19	192	7
HLD	20	0	0	288
HLD	20	0	7	672
TAP	22	96	0
TAP	22	192	0
TAP	22	288	0
TAP	23	96	1
TAP	23	192	1
TAP	23	288	1
TAP	24	96	2
STR	24	192	2
SI_	24	192	2	96	192	6
STR	26	96	7
SI_	26	96	7	96	384	4
STR	28	96	3
SI_	28	96	3	96	384	0
HLD	30	96	7	96
TAP	30	288	7
HLD	31	96	6	96
TAP	31	288	6
HLD	32	96	5	96
TAP	32	288	5
HLD	33	96	3	96
HLD	33	96	4	96
TAP	33	288	3
TAP	33	288	4
BRK	34	96	3
TAP	34	192	3
TAP	34	288	2
TAP	35	0	2
TAP	35	96	1
TAP	35	192	1
BRK	35	288	0
BRK	35	288	1
BRK	36	96	7
TAP	36	192	7
TAP	36	288	6
TAP	37	0	6
TAP	37	96	5
TAP	37	192	5
BRK	37	288	4
BRK	37	288	5
BRK	38	96	4
TAP	38	192	4
TAP	38	288	5
TAP	39	0	5
TAP	39	96	6
TAP	39	192	6
TAP	39	288	0
TAP	39	288	7
TAP	40	0	0
TAP	40	0	7
TAP	40	96	1
TAP	40	192	1
TAP	40	288	2
TAP	41	0	2
TAP	41	96	3
TAP	41	192	3
BRK	41	288	3
BRK	41	288	4
TTP	42	96	5	E	0	L1
TTP	42	288	4	E	0	L1
TTP	43	96	3	E	0	L1
TTP	44	96	2	B	0	L1
TTP	44	288	0	C	0	L1
TTP	45	96	5	B	0	L1
THO	46	96	0	144	C	0	L1

T_REC_TAP	79
T_REC_BRK	9
T_REC_XTP	0
T_REC_HLD	7
T_REC_XHO	0
T_REC_STR	3
T_REC_BST	0
T_REC_XST	0
T_REC_TTP	6
T_REC_THO	1
T_REC_SLD	3
T_REC_ALL	108
T_NUM_TAP	88
T_NUM_BRK	9
T_NUM_HLD	8
T_NUM_SLD	3
T_NUM_ALL	108
T_JUDGE_TAP	97
T_JUDGE_HLD	66
T_JUDGE_SLD	3
T_JUDGE_ALL	166
TTM_EACHPAIRS	12
TTM_SCR_TAP	44000
TTM_SCR_BRK	23400
TTM_SCR_HLD	8000
TTM_SCR_SLD	4500
TTM_SCR_ALL	79900
TTM_SCR_S	76650
TTM_SCR_SS	79000
TTM_RAT_ACV	10113

