VERSION	0.00.00	1.03.00
FES_MODE	0
BPM_DEF	212.000	212.000	212.000	212.000
MET_DEF	4	4
RESOLUTION	384
CLK_DEF	384
COMPATIBLE_CODE	MA2

BPM	0	0	212.000
MET	0	0	4	4

TAP	2	0	2
TAP	2	48	3
TAP	2	96	2
TAP	2	144	3
TAP	2	192	2
HLD	2	240	2	96
TAP	2	288	3
STR	2	336	3
SI_	2	336	3	96	48	7
TAP	4	0	5
TAP	4	48	4
TAP	4	96	5
TAP	4	144	4
TAP	4	192	5
HLD	4	240	5	96
TAP	4	288	4
STR	4	336	4
SI_	4	336	4	96	48	0
TAP	6	0	1
TAP	6	48	2
TAP	6	96	1
TAP	6	144	2
TAP	6	192	1
HLD	6	240	1	96
TAP	6	288	2
STR	6	336	2
SI_	6	336	2	96	48	6
TAP	8	0	6
TAP	8	48	5
TAP	8	96	6
TAP	8	144	5
TAP	8	192	6
HLD	8	240	6	96
TAP	8	288	5
STR	8	336	5
SI_	8	336	5	96	48	1
THO	9	192	0	96	C	0	M1
BRK	10	0	0
BRK	10	0	7
TAP	10	96	2
HLD	10	144	2	144
TAP	10	240	7
TAP	10	288	7
TAP	11	0	0
TAP	11	0	1
TAP	11	48	2
TAP	11	96	3
TAP	11	144	4
HLD	11	144	5	144
TAP	11	240	7
TAP	11	288	7
TAP	12	0	0
TAP	12	0	7
TAP	12	96	5
HLD	12	144	5	144
TAP	12	240	0
TAP	12	288	0
TAP	13	0	4
TAP	13	24	3
TAP	13	48	4
TAP	13	96	2
TAP	13	96	3
HLD	13	144	2	144
TAP	13	144	3
TAP	13	240	0
TAP	13	288	0
TAP	14	0	3
TAP	14	0	4
TAP	14	96	2
TAP	14	96	4
TAP	14	192	3
TAP	14	192	5
TAP	14	288	1
TAP	14	288	3
TAP	15	0	4
TAP	15	0	6
TAP	15	96	1
TAP	15	96	4
TAP	15	192	3
TAP	15	192	7
TAP	15	288	0
TAP	15	288	4
XTP	16	0	2
XTP	16	0	5
TAP	16	48	2
TAP	16	48	5
TAP	16	96	1
TAP	16	96	6
TAP	16	144	1
TAP	16	144	6
XTP	16	192	7
TAP	16	216	0
TAP	16	240	7
TAP	16	264	0
TAP	16	288	6
TAP	16	312	1
TAP	16	336	6
TAP	16	360	1
TTP	17	0	2	E	0	M1
XTP	17	0	7
TTP	17	64	3	E	0	M1
XTP	17	64	6
TTP	17	128	4	E	0	M1
XTP	17	128	5
XTP	17	192	0
TTP	17	192	6	E	0	M1
XTP	17	256	1
TTP	17	256	5	E	0	M1
XTP	17	320	2
TTP	17	320	4	E	0	M1
STR	18	0	7
SF_	18	0	7	96	48	3
BRK	18	96	7
TTP	18	108	7	B	0	M1
TTP	18	120	0	C	1	M1
TTP	18	132	3	B	0	M1
TAP	18	240	0
TAP	18	288	1
TAP	18	336	2
TAP	19	0	3
TAP	19	0	6
TAP	19	48	5
TAP	19	72	4
TAP	19	96	5
TAP	19	144	3
HLD	19	144	6	144
TAP	19	240	7
TAP	19	288	7
TAP	20	0	2
TAP	20	0	7
TAP	20	48	1
TAP	20	72	0
TAP	20	96	1
HLD	20	144	2	144
TAP	20	144	7
TAP	20	240	3
TAP	20	288	3
TAP	21	0	6
TAP	21	24	0
TAP	21	48	6
TAP	21	72	0
TAP	21	96	7
STR	21	144	7
SI_	21	144	7	96	48	3
XTP	21	288	0
TAP	21	304	1
TAP	21	320	2
XTP	21	336	4
TAP	21	352	5
TAP	21	368	6
XTP	22	0	0
XTP	22	0	7
TAP	22	96	2
TAP	22	96	3
HLD	22	144	1	144
TAP	22	144	4
TAP	22	240	0
TAP	22	288	0
TAP	23	0	0
TAP	23	0	5
TAP	23	48	6
TAP	23	72	7
TAP	23	96	6
TAP	23	144	0
HLD	23	144	5	144
TAP	23	240	4
TAP	23	288	4
TAP	24	0	1
TAP	24	24	0
TAP	24	48	1
TAP	24	72	0
TAP	24	96	3
TAP	24	120	4
TAP	24	144	3
TAP	24	168	4
TAP	24	192	7
TAP	24	216	6
TAP	24	240	7
TAP	24	264	6
TTP	24	288	0	E	0	M1
TTP	24	300	1	E	0	M1
TTP	24	312	2	E	0	M1
TTP	24	324	3	E	0	M1
TTP	24	336	4	E	0	M1
TTP	24	348	5	E	0	M1
TTP	24	360	6	E	0	M1
TTP	24	372	7	E	0	M1
THO	25	0	0	192	C	0	M1
BRK	25	192	0
HLD	26	0	2	288
HLD	26	0	3	96
HLD	26	144	3	144
HLD	27	0	3	96
HLD	27	0	4	288
HLD	27	144	3	144
HLD	28	0	4	288
HLD	28	0	5	96
HLD	28	144	5	144
TAP	29	0	2
STR	29	0	5
SUR	29	0	5	96	192	2
TAP	29	192	4
TAP	29	288	3
HLD	30	0	2	96
TAP	30	0	4
TAP	30	96	3
TAP	30	144	2
TAP	30	144	3
TAP	30	240	2
TAP	30	288	3
TAP	30	336	4
TAP	31	0	3
HLD	31	0	5	96
TAP	31	96	4
TAP	31	144	4
TAP	31	144	5
TAP	31	240	4
TAP	31	288	3
TAP	31	336	2
HLD	32	0	1	144
TAP	32	144	6
TAP	32	168	0
HLD	32	192	6	144
TAP	32	336	1
TAP	32	360	7
STR	33	0	1
SI_	33	0	1	96	48	5
STR	33	96	0
SI_	33	96	0	96	48	4
XTP	33	96	1
XTP	33	192	0
STR	33	192	7
SI_	33	192	7	96	48	3
STR	33	288	6
SI_	33	288	6	96	48	2
XTP	33	288	7
STR	34	0	0
SF_	34	0	0	96	48	4
XTP	34	0	6
BRK	34	96	0
TAP	34	240	2
TAP	34	240	6
TAP	34	288	5
TAP	34	312	4
TAP	34	336	5
TAP	34	360	4
HLD	35	0	6	48
TAP	35	48	4
HLD	35	72	5	48
TAP	35	120	3
HLD	35	144	4	48
TAP	35	192	2
HLD	35	216	3	48
TAP	35	264	1
TAP	35	288	2
TAP	35	336	2
HLD	36	0	1	48
TAP	36	48	3
HLD	36	72	2	48
TAP	36	120	4
HLD	36	144	3	48
TAP	36	192	5
HLD	36	216	4	48
TAP	36	264	6
TAP	36	288	5
TAP	36	336	5
XST	37	0	5
SI_	37	0	5	96	48	2
XST	37	0	6
SI_	37	0	6	96	48	1
TAP	37	192	0
TAP	37	192	3
TAP	37	288	4
TAP	37	288	7
HLD	38	0	2	132
HLD	38	0	6	132
XTP	38	144	1
XTP	38	144	5
XTP	38	156	0
XTP	38	156	4
XTP	38	168	3
XTP	38	168	7
TAP	38	240	3
TAP	38	288	4
TAP	38	336	5
TAP	39	0	1
TAP	39	0	5
HLD	39	48	1	84
HLD	39	48	5	84
XTP	39	144	2
XTP	39	144	6
XTP	39	156	3
XTP	39	156	7
XTP	39	168	0
XTP	39	168	4
TAP	39	240	4
TAP	39	288	3
TAP	39	336	2
BRK	40	0	1
BRK	40	0	5
BRK	40	96	7
BRK	40	120	7
BRK	40	144	7
BRK	40	168	7
BRK	40	192	7
BST	40	240	7
SI_	40	240	7	96	48	3
BRK	40	336	7
BRK	41	48	1
BRK	41	48	5
BRK	41	96	2
BRK	41	96	6
BRK	41	144	3
BRK	41	144	7
BST	41	192	0
SI_	41	192	0	96	48	5
BST	41	192	4
SI_	41	192	4	96	48	1
XST	41	288	0
SCR	41	288	0	96	480	7
XTP	41	288	4
HLD	42	0	4	480
TTP	43	192	3	B	0	M1
TTP	43	192	3	E	0	M1
TTP	43	192	4	B	0	M1
TTP	43	192	5	E	0	M1
TAP	44	0	2
TAP	44	0	5
TAP	44	96	1
HLD	44	144	3	96
HLD	44	240	2	192
TAP	45	0	1
STR	45	48	1
SI_	45	48	1	96	48	6
STR	46	0	6
SCL	46	0	6	96	384	1
TAP	46	96	3
HLD	46	144	3	336
TTP	47	192	3	B	0	M1
TTP	47	192	3	E	0	M1
TTP	47	192	4	B	0	M1
TTP	47	192	5	E	0	M1
TAP	48	0	2
TAP	48	0	5
TAP	48	96	6
HLD	48	144	4	96
TAP	48	192	5
HLD	48	240	5	192
TAP	49	0	6
STR	49	48	6
SI_	49	48	6	96	48	1
TTP	49	288	7	E	0	M1
TTP	49	300	6	B	0	M1
TTP	49	312	5	B	0	M1
TTP	49	324	5	E	0	M1
TTP	49	336	1	E	0	M1
TTP	49	348	1	B	0	M1
TTP	49	360	2	B	0	M1
TTP	49	372	3	E	0	M1
XTP	50	0	3
XTP	50	0	7
TAP	50	96	2
TAP	50	96	5
XTP	50	144	2
XTP	50	144	5
TAP	50	240	3
TAP	50	240	4
TAP	50	288	2
TAP	50	312	2
TAP	50	336	3
HLD	51	0	2	144
TAP	51	48	4
TAP	51	96	4
HLD	51	144	5	144
TAP	51	192	3
TAP	51	240	3
TAP	51	288	2
TAP	51	336	5
XTP	52	0	3
XTP	52	0	4
TAP	52	96	1
TAP	52	96	6
XTP	52	144	1
XTP	52	144	6
TAP	52	240	3
TAP	52	240	4
TAP	52	288	5
TAP	52	312	5
TAP	52	336	4
HLD	53	0	4	48
HLD	53	0	6	48
HLD	53	72	3	48
HLD	53	72	4	48
HLD	53	144	1	48
HLD	53	144	3	48
TAP	53	240	2
TAP	53	240	5
TAP	53	288	2
TAP	53	288	5
HLD	54	0	3	96
HLD	54	0	6	96
TAP	54	144	2
TAP	54	168	3
HLD	54	192	1	96
HLD	54	192	4	96
TAP	54	336	6
TAP	54	360	7
HLD	55	0	0	96
HLD	55	0	5	96
TAP	55	144	1
TAP	55	168	0
HLD	55	192	2	96
HLD	55	192	7	96
TAP	55	336	7
TAP	55	360	0
TAP	56	0	1
TAP	56	0	6
TAP	56	64	2
TAP	56	64	3
TAP	56	128	4
TAP	56	128	5
TAP	56	192	5
TAP	56	224	5
TAP	56	256	6
TAP	56	288	6
TAP	56	320	7
TAP	56	352	7
TAP	57	0	0
TAP	57	32	0
TAP	57	64	1
TAP	57	96	1
TAP	57	128	2
TAP	57	160	2
TTP	57	192	0	C	1	M1
TTP	57	192	1	B	0	M1
TTP	57	192	6	B	0	M1
HLD	58	0	2	72
HLD	58	72	3	72
TAP	58	144	2
TAP	58	192	4
TAP	58	216	3
TAP	58	240	4
TAP	58	264	3
TAP	58	288	4
TAP	58	336	1
TAP	58	336	6
TAP	59	48	6
TAP	59	48	7
TAP	59	96	0
TAP	59	96	1
TAP	59	144	2
TAP	59	144	3
STR	59	192	4
SF_	59	192	4	96	48	0
TAP	59	192	5
HLD	60	0	6	72
HLD	60	72	7	72
TAP	60	144	6
TAP	60	192	0
TAP	60	216	7
TAP	60	240	0
TAP	60	264	7
TAP	60	288	0
HLD	60	336	5	48
HLD	61	0	7	48
HLD	61	48	0	48
HLD	61	96	2	96
TAP	61	144	0
TAP	61	156	7
TAP	61	168	6
TAP	61	180	5
TAP	61	192	4
BRK	61	240	0
XHO	62	0	2	72
XTP	62	0	3
HLD	62	72	4	72
TAP	62	144	3
TAP	62	192	5
TAP	62	216	3
TAP	62	240	5
TAP	62	264	3
TAP	62	288	6
TAP	62	312	4
TAP	62	336	6
XTP	63	0	4
XHO	63	0	5	72
HLD	63	72	3	72
TAP	63	144	4
TAP	63	192	2
TAP	63	216	4
TAP	63	240	2
TAP	63	264	4
TAP	63	288	1
TAP	63	312	3
TAP	63	336	1
XHO	64	0	0	128
XTP	64	0	4
TAP	64	64	5
TAP	64	128	6
XTP	64	192	0
XHO	64	192	7	128
TAP	64	256	1
TAP	64	320	2
XTP	65	0	3
XTP	65	32	6
XTP	65	64	7
XTP	65	96	4
XTP	65	128	1
XTP	65	160	0
XST	65	192	1
SI_	65	192	1	96	48	4
XST	65	192	6
SI_	65	192	6	96	48	3
STR	66	0	0
SI_	66	0	0	96	48	4
TAP	66	0	7
TAP	66	48	1
TAP	66	96	2
TAP	66	144	3
TAP	66	192	5
TAP	66	216	4
TAP	66	240	5
TAP	66	264	4
TAP	66	288	5
TAP	67	0	0
STR	67	0	7
SI_	67	0	7	96	48	3
TAP	67	48	6
TAP	67	96	5
TAP	67	144	4
TAP	67	192	2
TAP	67	216	3
TAP	67	240	2
TAP	67	264	3
TAP	67	288	2
STR	68	0	0
SI_	68	0	0	96	48	4
TAP	68	0	7
TAP	68	48	1
TAP	68	96	2
TAP	68	144	3
TAP	68	192	5
TAP	68	216	4
TAP	68	240	5
TAP	68	264	4
TAP	68	288	5
TAP	69	0	0
TAP	69	24	7
TAP	69	48	0
TAP	69	72	7
HLD	69	96	1	48
HLD	69	144	0	48
HLD	69	192	7	48
HLD	69	240	6	48
TTP	69	288	0	C	0	M1
TAP	70	0	0
TAP	70	0	1
STR	70	48	6
SI_	70	48	6	96	48	2
TAP	70	48	7
STR	70	144	1
SI_	70	144	1	96	48	5
XTP	70	144	6
XTP	70	240	1
STR	70	240	7
SI_	70	240	7	96	48	3
XTP	70	336	0
XTP	70	336	7
TAP	71	48	5
TAP	71	72	4
TAP	71	96	7
TAP	71	144	2
TAP	71	168	3
STR	71	192	0
SI_	71	192	0	96	48	4
XTP	71	288	0
TTP	72	0	0	C	1	M1
BRK	72	0	5
TTP	72	72	0	C	1	M1
BRK	72	72	1
XTP	72	144	3
XTP	72	144	7
TTP	72	192	0	C	1	M1
BRK	72	192	5
TTP	72	264	0	C	1	M1
BRK	72	264	1
XTP	72	336	3
XTP	72	336	7
TTP	73	0	0	C	1	M1
BRK	73	0	5
TTP	73	72	0	C	1	M1
BRK	73	72	1
XTP	73	144	3
XTP	73	144	7
XST	73	192	3
SI_	73	192	3	96	48	0
XST	73	192	7
SI_	73	192	7	96	48	4
BST	74	0	2
SXL	74	0	2	96	288	1
BST	74	0	6
SXL	74	0	6	96	288	5
TAP	75	192	3
TAP	75	192	4
TTP	75	288	6	B	0	M1
TTP	75	288	7	E	0	M1
TTP	76	0	1	B	0	M1
TTP	76	0	1	E	0	M1
TAP	76	96	5
TAP	76	136	4
TAP	76	168	5
TAP	76	196	4
TAP	76	220	5
TAP	76	244	4
TAP	76	264	5
TAP	76	288	4
TAP	76	312	5
TAP	77	0	2
TAP	77	16	3
TAP	77	40	2
TAP	77	56	3
TAP	77	72	2
TAP	77	92	3
TAP	77	112	2
TAP	77	136	3
TAP	77	164	2
TAP	77	192	1
TAP	77	192	4
TAP	77	240	1
TAP	77	240	4
TAP	77	288	3
TAP	77	288	6
TAP	77	336	3
TAP	77	336	6
HLD	78	0	0	48
HLD	78	0	7	48
HLD	78	96	1	48
TAP	78	96	6
TAP	78	144	6
HLD	78	192	2	48
TAP	78	192	5
TAP	78	240	5
HLD	78	288	3	48
TAP	78	288	4
TAP	78	336	4
HLD	79	0	3	48
HLD	79	0	4	48
TAP	79	96	2
HLD	79	96	5	48
TAP	79	144	2
TAP	79	192	1
HLD	79	192	6	48
TAP	79	240	1
TAP	79	288	0
HLD	79	288	7	48
TAP	79	336	0
HLD	80	0	2	32
HLD	80	0	7	32
HLD	80	64	1	32
HLD	80	64	6	32
HLD	80	128	0	32
HLD	80	128	5	32
HLD	80	192	4	32
HLD	80	192	7	32
HLD	80	256	2	32
HLD	80	256	5	32
HLD	80	320	0	32
HLD	80	320	3	32
XST	81	0	1
SCL	81	0	1	96	192	4
XST	81	0	6
SCR	81	0	6	96	192	3
HLD	82	0	2	72
HLD	82	72	3	72
HLD	82	144	1	144
TTP	82	192	3	E	0	M1
TTP	82	240	4	E	0	M1
TTP	82	288	5	E	0	M1
HLD	83	0	5	72
HLD	83	72	4	72
HLD	83	144	6	144
TTP	83	192	5	E	0	M1
TTP	83	240	4	E	0	M1
TTP	83	288	3	E	0	M1
HLD	84	0	2	72
HLD	84	72	3	72
HLD	84	144	1	144
TTP	84	192	3	E	0	M1
TTP	84	240	4	E	0	M1
TTP	84	288	5	E	0	M1
XTP	85	0	2
XTP	85	0	4
XTP	85	48	0
XTP	85	48	6
XTP	85	96	3
XTP	85	96	5
XTP	85	144	1
XTP	85	144	7
XTP	85	192	3
XTP	85	192	4
TTP	85	240	0	C	1	M1
TTP	85	240	2	E	0	M1
TTP	85	240	6	E	0	M1
XTP	86	0	3
XTP	86	0	6
TAP	86	48	5
TAP	86	72	4
TAP	86	120	4
TAP	86	144	5
TAP	86	192	3
TAP	86	216	5
TAP	86	240	2
TAP	86	264	4
TAP	86	288	1
TAP	86	312	3
TAP	86	336	0
XTP	87	0	1
XTP	87	0	4
TAP	87	48	2
TAP	87	72	3
TAP	87	120	3
TAP	87	144	2
TAP	87	192	4
TAP	87	216	2
TAP	87	240	5
TAP	87	264	3
TAP	87	288	6
TAP	87	312	4
TAP	87	336	7
XTP	88	0	3
XHO	88	0	7	128
TAP	88	64	2
TAP	88	128	1
XHO	88	192	0	128
XTP	88	192	7
TAP	88	256	6
TAP	88	320	5
XTP	89	0	4
XTP	89	32	1
XTP	89	64	0
XTP	89	96	3
XTP	89	128	6
XTP	89	160	7
XST	89	192	1
SI_	89	192	1	96	48	4
XST	89	192	6
SI_	89	192	6	96	48	3
TAP	90	0	0
STR	90	0	7
SI_	90	0	7	96	48	3
TAP	90	48	6
TAP	90	96	5
TAP	90	144	4
TAP	90	192	2
TAP	90	216	3
TAP	90	240	2
TAP	90	264	3
TAP	90	288	1
TAP	90	288	4
STR	91	0	0
SI_	91	0	0	96	48	4
TAP	91	0	7
TAP	91	48	1
TAP	91	96	2
TAP	91	144	3
TAP	91	192	5
TAP	91	216	4
TAP	91	240	5
TAP	91	264	4
TAP	91	288	3
TAP	91	288	6
TAP	92	0	1
HLD	92	48	1	144
TTP	92	96	1	E	0	M1
TTP	92	112	1	B	0	M1
TTP	92	128	2	B	0	M1
TTP	92	144	3	E	0	M1
TAP	92	192	6
HLD	92	240	6	144
TTP	92	288	7	E	0	M1
TTP	92	304	6	B	0	M1
TTP	92	320	5	B	0	M1
TTP	92	336	5	E	0	M1
TAP	93	0	0
HLD	93	48	0	144
TTP	93	96	7	E	0	M1
TTP	93	108	6	E	0	M1
TTP	93	120	5	E	0	M1
TTP	93	132	4	E	0	M1
TTP	93	144	3	E	0	M1
TAP	93	192	7
HLD	93	240	7	144
TTP	93	288	1	E	0	M1
TTP	93	300	2	E	0	M1
TTP	93	312	3	E	0	M1
TTP	93	324	4	E	0	M1
TTP	93	336	5	E	0	M1
XTP	94	0	0
XTP	94	48	0
XST	94	144	2
SI_	94	144	2	96	48	7
XST	94	144	6
SI_	94	144	6	96	48	3
XST	94	240	2
SI_	94	240	2	96	48	5
XST	94	240	6
SI_	94	240	6	96	48	1
XTP	94	336	2
XTP	94	336	6
XTP	95	48	3
XTP	95	48	7
XTP	95	96	2
XTP	95	96	6
XTP	95	144	1
XTP	95	144	5
XTP	95	192	0
XTP	95	192	4
BRK	95	288	3
BRK	95	288	4
TTP	96	0	1	B	0	M1
TTP	96	0	6	B	0	M1
TTP	96	48	2	B	0	M1
TTP	96	48	5	B	0	M1
TTP	96	144	2	E	0	M1
TTP	96	144	7	B	0	M1
TTP	96	240	0	B	0	M1
TTP	96	240	6	E	0	M1
TTP	96	336	3	B	0	M1
TTP	96	336	4	B	0	M1
TTP	97	48	3	E	0	M1
TTP	97	48	7	E	0	M1
TTP	97	96	2	E	0	M1
TTP	97	96	6	E	0	M1
TTP	97	144	1	E	0	M1
TTP	97	144	5	E	0	M1
TTP	97	192	0	E	0	M1
THO	97	192	0	96	C	0	M1
BST	97	288	0
SCR	97	288	0	96	576	7
XTP	98	0	0
HLD	98	192	1	6
HLD	99	0	3	6
HLD	99	192	5	6
BRK	99	288	0
BRK	99	288	7
TTP	100	0	0	C	1	M1
BRK	100	0	2
TTP	100	72	0	C	1	M1
BRK	100	72	6
XTP	100	144	0
XTP	100	144	4
TTP	100	192	0	C	1	M1
BRK	100	192	2
TTP	100	264	0	C	1	M1
BRK	100	264	6
XTP	100	336	0
XTP	100	336	4
TTP	101	0	0	C	1	M1
BRK	101	0	2
TTP	101	72	0	C	1	M1
BRK	101	72	6
XTP	101	144	0
XTP	101	144	4
XST	101	192	0
SI_	101	192	0	96	48	3
XST	101	192	4
SI_	101	192	4	96	48	7
STR	102	0	0
SF_	102	0	0	96	48	4
BRK	102	96	0
TTP	102	108	0	B	0	M1
TTP	102	120	0	C	1	M1
TTP	102	132	4	B	0	M1
TAP	102	240	7
TAP	102	288	6
TAP	102	336	5
TAP	103	0	1
TAP	103	0	4
TAP	103	48	2
TAP	103	72	3
TAP	103	96	2
HLD	103	144	1	144
TAP	103	144	4
TAP	103	240	0
TAP	103	288	7
TAP	103	336	6
TAP	104	0	0
TAP	104	0	5
TAP	104	48	6
TAP	104	72	7
TAP	104	96	6
TAP	104	144	0
HLD	104	144	5	144
TAP	104	240	4
TAP	104	288	3
TAP	104	336	2
TAP	105	0	1
TAP	105	24	7
TAP	105	48	1
TAP	105	72	7
TAP	105	96	0
STR	105	144	0
SI_	105	144	0	96	48	4
XTP	105	288	7
TAP	105	304	6
TAP	105	320	5
XTP	105	336	3
TAP	105	352	2
TAP	105	368	1
XTP	106	0	0
XTP	106	0	7
TAP	106	96	4
TAP	106	96	5
TAP	106	144	3
HLD	106	144	6	144
TAP	106	240	7
TAP	106	288	0
TAP	106	336	1
TAP	107	0	2
TAP	107	0	7
TAP	107	48	1
TAP	107	72	0
TAP	107	96	1
HLD	107	144	2	144
TAP	107	144	7
TAP	107	240	3
TAP	107	288	4
TAP	107	336	5
TAP	108	0	1
TAP	108	0	6
TAP	108	48	7
TAP	108	72	0
TAP	108	96	7
TAP	108	144	1
HLD	108	144	6	144
TAP	108	240	5
TAP	108	288	4
TAP	108	336	3
HLD	109	0	0	32
HLD	109	0	3	32
HLD	109	64	2	32
HLD	109	64	5	32
HLD	109	128	4	32
HLD	109	128	7	32
HLD	109	192	2	32
HLD	109	192	6	32
HLD	109	256	1	32
HLD	109	256	5	32
HLD	109	320	0	32
HLD	109	320	4	32
STR	110	0	3
SI_	110	0	3	96	48	6
STR	110	0	7
SI_	110	0	7	96	48	2
BRK	110	96	3
BRK	110	96	7
TAP	110	192	1
TAP	110	216	7
TAP	110	240	1
TAP	110	264	7
TAP	110	288	0
TAP	110	312	6
TAP	110	336	0
TAP	110	360	6
TAP	111	0	7
TAP	111	24	0
TAP	111	48	1
TAP	111	72	2
TAP	111	96	7
TAP	111	120	6
TAP	111	144	5
TAP	111	168	4
XTP	111	192	2
TAP	111	224	2
TAP	111	256	2
XTP	111	288	5
TAP	111	320	5
TAP	111	352	5
XTP	112	0	4
XTP	112	0	6
TAP	112	48	5
TAP	112	72	4
TAP	112	96	5
TAP	112	120	4
TAP	112	144	5
XTP	112	192	1
XTP	112	192	3
TAP	112	240	2
TAP	112	264	3
TAP	112	288	2
TAP	112	312	3
TAP	112	336	2
XTP	113	0	3
XTP	113	0	4
TAP	113	48	4
TAP	113	72	3
TAP	113	96	5
TAP	113	120	2
TAP	113	144	6
TAP	113	168	1
XTP	113	192	0
XTP	113	192	7
XTP	113	224	1
XTP	113	224	6
XTP	113	256	2
XTP	113	256	5
XTP	113	288	3
XTP	113	288	4
XTP	113	320	2
XTP	113	320	5
XTP	113	352	1
XTP	113	352	6
XTP	114	0	0
XTP	114	0	7
STR	114	192	0
SF_	114	192	0	96	36	4
BRK	115	0	2
TAP	115	32	2
TAP	115	64	2
BRK	115	96	0
TAP	115	128	0
TAP	115	160	0
BRK	115	192	6
TAP	115	224	6
TAP	115	256	6
BRK	115	288	4
TAP	115	320	4
TAP	115	352	4
XTP	116	0	0
XST	116	0	3
SV_	116	0	3	96	48	0
XTP	116	48	0
XTP	116	48	3
TTP	116	96	1	E	0	M1
TTP	116	112	1	B	0	M1
TTP	116	128	2	B	0	M1
TTP	116	144	3	E	0	M1
XST	116	192	4
SV_	116	192	4	96	48	7
XTP	116	192	7
XTP	116	240	4
XTP	116	240	7
TTP	116	288	7	E	0	M1
TTP	116	304	6	B	0	M1
TTP	116	320	5	B	0	M1
TTP	116	336	5	E	0	M1
XHO	117	0	0	192
BST	117	0	3
SXL	117	0	3	96	108	7
XTP	117	288	0
TAP	117	312	0
TAP	117	336	0
TAP	117	360	0
XTP	118	0	0
HLD	118	96	2	48
HLD	118	144	3	48
HLD	118	192	2	48
HLD	118	240	1	48
HLD	118	288	0	48
STR	118	336	7
SI_	118	336	7	96	48	3
TAP	119	336	3
TAP	119	360	4
HLD	120	0	5	48
HLD	120	48	4	48
HLD	120	96	5	48
HLD	120	144	4	48
HLD	120	192	5	48
HLD	120	240	6	48
HLD	120	288	7	48
STR	120	336	0
SI_	120	336	0	96	48	4
TTP	121	144	7	B	0	M1
TTP	121	192	6	B	0	M1
TTP	121	288	4	B	0	M1
HLD	122	0	2	48
HLD	122	48	3	48
HLD	122	96	2	48
HLD	122	144	3	48
HLD	122	192	2	48
HLD	122	240	1	48
HLD	122	288	0	48
STR	122	336	7
SI_	122	336	7	96	48	3
TAP	123	336	3
TAP	123	360	4
HLD	124	0	5	48
HLD	124	48	4	48
HLD	124	96	5	48
HLD	124	144	4	48
HLD	124	192	5	48
HLD	124	240	6	48
HLD	124	288	7	48
STR	124	336	0
SF_	124	336	0	96	48	4

T_REC_TAP	520
T_REC_BRK	43
T_REC_XTP	134
T_REC_HLD	154
T_REC_XHO	7
T_REC_STR	34
T_REC_BST	7
T_REC_XST	19
T_REC_TTP	114
T_REC_THO	3
T_REC_SLD	60
T_REC_ALL	1095
T_NUM_TAP	821
T_NUM_BRK	50
T_NUM_HLD	164
T_NUM_SLD	60
T_NUM_ALL	1095
T_JUDGE_TAP	871
T_JUDGE_HLD	310
T_JUDGE_SLD	60
T_JUDGE_ALL	1241
TTM_EACHPAIRS	184
TTM_SCR_TAP	410500
TTM_SCR_BRK	130000
TTM_SCR_HLD	164000
TTM_SCR_SLD	90000
TTM_SCR_ALL	794500
TTM_SCR_S	765850
TTM_SCR_SS	789500
TTM_RAT_ACV	10063

