VERSION	0.00.00	1.03.00
FES_MODE	0
BPM_DEF	212.000	212.000	212.000	212.000
MET_DEF	4	4
RESOLUTION	384
CLK_DEF	384
COMPATIBLE_CODE	MA2

BPM	0	0	212.000
MET	0	0	4	4

HLD	6	0	3	432
HLD	6	0	4	336
HLD	8	0	2	432
HLD	8	0	5	336
TAP	9	192	3
TAP	9	192	4
STR	10	0	2
SI_	10	0	2	96	96	4
TAP	10	192	5
STR	11	0	5
SI_	11	0	5	96	96	3
TAP	11	192	2
STR	12	0	2
SI_	12	0	2	96	96	4
TAP	12	192	5
TAP	13	0	6
TAP	13	96	5
TAP	13	192	4
TAP	13	288	3
TAP	14	0	2
TAP	14	96	2
TAP	14	192	1
TAP	14	192	3
TAP	14	288	4
TAP	15	0	5
TAP	15	96	5
TAP	15	192	4
TAP	15	192	6
TAP	15	288	3
TAP	16	0	2
TAP	16	96	2
TAP	16	192	0
TAP	16	192	1
STR	16	288	7
SF_	16	288	7	96	192	3
XTP	18	0	2
XTP	18	0	4
BRK	18	96	1
BRK	18	96	5
TAP	18	144	1
TAP	18	144	5
TAP	18	240	7
TAP	18	288	7
HLD	19	0	6	96
TAP	19	96	4
TAP	19	144	3
TAP	19	240	2
TAP	19	240	4
TAP	19	288	2
TAP	19	288	4
HLD	20	0	1	96
TAP	20	96	3
TAP	20	144	4
TAP	20	240	3
TAP	20	240	5
TAP	20	288	3
TAP	20	288	5
TAP	21	0	6
TAP	21	0	7
TAP	21	96	4
TAP	21	96	5
TAP	21	192	2
TAP	21	192	3
TAP	21	288	1
TAP	21	288	4
HLD	22	0	5	96
TAP	22	96	7
TAP	22	144	0
TAP	22	240	1
TAP	22	240	7
TAP	22	288	1
TAP	22	288	7
HLD	23	0	2	96
TAP	23	96	0
TAP	23	144	7
TAP	23	240	0
TAP	23	240	6
TAP	23	288	0
TAP	23	288	6
TAP	24	0	4
TAP	24	0	5
TAP	24	96	6
TAP	24	96	7
TAP	24	192	0
TAP	24	192	1
TAP	24	288	2
TAP	24	288	3
TAP	25	0	4
TAP	25	48	3
TAP	25	96	4
BRK	25	192	2
BRK	25	192	6
STR	26	0	0
SXL	26	0	0	96	480	5
STR	28	0	4
SXL	28	0	4	96	480	1
STR	30	0	0
SCR	30	0	0	96	672	7
THO	32	0	0	192	C	0	M1
TAP	33	0	0
TAP	33	0	7
BRK	33	96	1
BRK	33	96	6
BRK	33	192	4
BRK	33	192	5
BRK	33	288	2
BRK	33	288	3
TAP	34	0	3
TAP	34	0	4
XTP	34	96	4
XTP	34	96	6
TAP	34	192	0
TAP	34	192	7
TAP	34	288	1
TAP	34	336	1
TAP	35	0	0
TAP	35	96	2
TAP	35	96	7
TAP	35	192	2
TAP	35	192	3
TAP	35	288	5
TAP	35	336	5
TAP	36	0	4
TAP	36	96	3
TAP	36	96	6
TAP	36	192	2
TAP	36	192	3
STR	36	288	1
SUR	36	288	1	96	144	5
TAP	36	288	4
TAP	37	192	6
BRK	37	288	0
BRK	37	288	6
TAP	38	0	5
TAP	38	96	4
TAP	38	96	5
TAP	38	144	4
TAP	38	144	5
TAP	38	240	2
TAP	38	288	1
TAP	38	288	3
TAP	39	0	0
TAP	39	48	0
TAP	39	144	1
TAP	39	144	7
TAP	39	240	2
TAP	39	240	6
TAP	39	288	2
TAP	39	288	6
XTP	40	0	3
XTP	40	0	4
XTP	40	96	7
XTP	40	144	7
XTP	40	192	0
XTP	40	240	0
XTP	40	336	1
XTP	40	336	6
XTP	41	48	2
XTP	41	96	2
XTP	41	144	3
BRK	41	192	1
BRK	41	192	4
XHO	42	0	4	96
XHO	42	0	5	96
TAP	42	144	4
XHO	42	144	5	432
TAP	43	144	4
TAP	43	192	4
TAP	43	288	4
TAP	43	288	5
XHO	44	0	4	96
XHO	44	0	5	96
XHO	44	144	4	384
TAP	44	144	5
THO	45	0	0	144	C	0	M1
XHO	46	0	0	96
XHO	46	0	1	96
TAP	46	144	0
XHO	46	144	1	432
TAP	47	144	0
TAP	47	192	0
TAP	47	288	0
TAP	47	288	1
XHO	48	0	0	96
XHO	48	0	1	96
XHO	48	144	0	384
TAP	48	144	1
THO	49	0	0	144	C	0	M1
TAP	50	0	1
TAP	50	96	2
TAP	50	96	3
TAP	50	144	2
TAP	50	144	3
TAP	50	240	3
TAP	50	336	4
TAP	51	48	3
TAP	51	48	4
TAP	51	144	5
HLD	51	192	5	96
TAP	51	288	4
TAP	52	0	6
TAP	52	96	4
TAP	52	96	5
TAP	52	144	4
TAP	52	144	5
TAP	52	240	4
TAP	52	336	3
TAP	53	48	3
TAP	53	48	4
TAP	53	144	2
HLD	53	192	2	96
TAP	53	288	3
XTP	54	0	3
XTP	54	0	4
TAP	54	144	6
XTP	54	192	4
XTP	54	192	6
TAP	54	336	1
XTP	55	0	1
XTP	55	0	3
TAP	55	144	5
XTP	55	192	4
XTP	55	192	5
TAP	55	336	2
XTP	56	0	2
XTP	56	64	2
XTP	56	64	3
XTP	56	128	2
XTP	56	128	3
XTP	56	192	4
XTP	56	192	5
XTP	56	256	4
XTP	56	256	5
XTP	56	320	4
XST	56	320	5
SCR	56	320	5	96	96	2
XTP	57	192	1
XTP	57	192	5
TAP	58	0	2
TAP	58	0	3
TAP	58	96	3
TAP	58	96	4
TAP	58	192	4
TAP	58	192	5
TAP	58	288	6
TAP	58	336	6
TAP	59	48	0
TAP	59	96	0
TAP	59	144	7
TAP	59	192	1
BRK	59	288	2
BRK	59	288	6
STR	60	0	5
SI_	60	0	5	96	48	0
STR	60	96	1
SI_	60	96	1	96	48	4
STR	60	192	6
SI_	60	192	6	96	48	3
STR	60	288	2
SCL	60	288	2	96	144	5
TAP	61	0	4
XTP	61	192	7
XTP	61	240	7
TAP	61	336	1
HLD	62	0	1	72
TAP	62	72	0
TAP	62	144	2
TAP	62	192	2
TAP	62	240	3
TAP	62	288	1
TAP	62	288	4
HLD	63	0	6	72
TAP	63	72	7
TAP	63	144	5
TAP	63	192	5
TAP	63	240	4
TAP	63	288	3
TAP	63	288	6
XHO	64	0	1	96
XHO	64	0	4	96
XHO	64	192	3	96
XHO	64	192	6	96
XTP	65	0	5
XTP	65	32	4
XTP	65	64	5
XTP	65	96	4
XTP	65	128	5
XTP	65	160	4
XTP	65	192	5
BRK	65	288	3
BRK	65	288	7
HLD	66	0	6	72
TAP	66	72	7
TAP	66	144	0
TAP	66	144	5
TAP	66	192	0
STR	66	192	5
SI_	66	192	5	96	48	2
XTP	66	288	2
HLD	67	0	1	72
TAP	67	72	0
TAP	67	144	2
TAP	67	144	7
STR	67	192	2
SI_	67	192	2	96	48	5
TAP	67	192	7
XTP	67	288	5
HLD	68	0	6	72
TAP	68	72	7
TAP	68	144	0
TAP	68	144	5
TAP	68	192	0
STR	68	192	5
SI_	68	192	5	96	48	0
XTP	68	288	2
TAP	69	0	1
TAP	69	48	1
TAP	69	96	3
TAP	69	144	3
TAP	69	192	4
TAP	69	240	4
TAP	69	288	4
TAP	69	288	5
XTP	70	0	2
XTP	70	0	6
XTP	70	48	2
XTP	70	48	6
XTP	70	144	3
XTP	70	144	5
XTP	70	240	2
XTP	70	240	3
XTP	70	336	3
XTP	70	336	4
XTP	71	48	1
XTP	71	48	3
XTP	71	144	0
XTP	71	144	7
XTP	71	192	0
XTP	71	192	7
XTP	71	288	1
XTP	71	288	4
HLD	72	0	6	72
HLD	72	72	5	72
TAP	72	144	4
HLD	72	192	1	72
HLD	72	264	2	72
TAP	72	336	3
HLD	73	0	4	72
HLD	73	72	5	72
TAP	73	144	6
BRK	73	192	3
BRK	73	192	7
STR	74	0	0
SCR	74	0	0	96	384	5
XTP	75	288	6
XST	76	0	6
SCL	76	0	6	96	384	1
TAP	77	192	0
TAP	77	192	7
TAP	77	288	1
TAP	77	288	6
TAP	78	0	2
TAP	78	96	1
TAP	78	96	3
TAP	78	192	5
TAP	78	288	4
TAP	78	288	6
TAP	79	0	2
TAP	79	96	0
TAP	79	96	1
TAP	79	192	5
TAP	79	288	6
TAP	79	288	7
HLD	80	0	1	64
HLD	80	64	2	64
HLD	80	128	3	64
HLD	80	192	4	64
HLD	80	256	5	64
HLD	80	320	6	64
STR	81	0	7
SSR	81	0	7	96	288	3
BRK	82	0	7
BRK	84	288	2
BRK	84	288	5
TAP	85	0	6
TAP	85	0	7
TAP	85	48	6
TAP	85	48	7
TAP	85	96	0
TAP	85	96	5
TAP	85	144	0
TAP	85	144	5
TAP	85	192	1
TAP	85	192	4
BRK	85	240	1
BRK	85	240	4
TAP	85	336	6
HLD	86	0	6	72
TAP	86	72	7
TAP	86	144	4
TAP	86	144	5
TAP	86	192	4
TAP	86	192	5
TAP	86	240	3
TAP	86	240	6
TAP	86	288	2
TAP	86	288	7
HLD	87	0	1	72
TAP	87	72	0
TAP	87	144	2
TAP	87	144	3
TAP	87	192	2
TAP	87	192	3
TAP	87	240	1
TAP	87	240	4
TAP	87	288	0
TAP	87	288	5
XHO	88	0	2	96
XHO	88	0	7	96
XHO	88	192	0	96
XHO	88	192	5	96
XTP	89	0	6
XTP	89	32	7
XTP	89	64	6
XTP	89	96	7
XTP	89	128	6
XTP	89	160	7
XTP	89	192	6
BRK	89	288	0
BRK	89	288	4
HLD	90	0	1	72
TAP	90	72	0
TAP	90	144	2
TAP	90	144	7
STR	90	192	3
SI_	90	192	3	96	48	7
TAP	90	192	6
BRK	90	288	4
HLD	91	0	6	72
TAP	91	72	7
TAP	91	144	0
TAP	91	144	5
TAP	91	192	1
STR	91	192	4
SI_	91	192	4	96	48	0
BRK	91	288	3
TAP	92	0	2
TAP	92	48	3
BRK	92	96	1
BRK	92	96	4
TAP	92	192	5
TAP	92	240	4
BRK	92	288	3
BRK	92	288	6
TAP	93	0	6
TAP	93	48	7
BRK	93	96	0
BRK	93	96	5
TAP	93	192	1
TAP	93	240	0
BRK	93	288	2
BRK	93	288	7
XTP	94	0	0
XST	94	48	0
SI_	94	48	0	96	48	4
XST	94	144	6
SI_	94	144	6	96	48	3
XTP	94	240	1
XTP	94	336	2
XTP	94	336	4
XTP	95	48	5
XTP	95	96	5
XTP	95	144	4
XST	95	192	6
SI_	95	192	6	96	48	2
XST	95	288	0
SCR	95	288	0	96	576	6
BRK	96	0	7
XTP	97	288	7
XST	98	0	7
SI_	98	0	7	96	384	3
BRK	99	288	2
BRK	99	288	5
XHO	100	0	1	72
HLD	100	72	2	72
TAP	100	144	3
HLD	100	192	6	72
HLD	100	264	5	72
TAP	100	336	4
HLD	101	0	3	72
HLD	101	72	2	72
TAP	101	144	1
BRK	101	192	0
BRK	101	192	4
TAP	102	0	1
TAP	102	0	6
TAP	102	96	5
STR	102	144	5
SI_	102	144	5	96	48	3
TAP	102	240	2
TAP	102	288	2
TAP	103	0	1
TAP	103	0	4
TAP	103	96	0
TAP	103	144	0
TAP	103	240	5
TAP	103	288	5
TAP	104	0	2
TAP	104	0	4
TAP	104	96	1
STR	104	144	1
SI_	104	144	1	96	48	4
TAP	104	240	5
TAP	104	288	5
TAP	105	0	3
TAP	105	0	6
TAP	105	96	7
TAP	105	144	7
TAP	105	240	2
TAP	105	288	2
TAP	106	0	0
TAP	106	0	5
TAP	106	96	2
TAP	106	144	1
STR	106	144	3
SI_	106	144	3	96	48	7
TAP	106	240	0
TAP	106	288	0
TAP	107	0	2
TAP	107	0	7
TAP	107	96	5
STR	107	144	4
SI_	107	144	4	96	48	0
TAP	107	144	6
TAP	107	240	7
TAP	107	288	7
TAP	108	0	1
TAP	108	0	3
TAP	108	96	3
TAP	108	96	4
TAP	108	192	4
TAP	108	192	6
TAP	108	288	0
TAP	108	288	7
HLD	109	0	6	72
HLD	109	72	5	72
TAP	109	144	4
HLD	109	192	1	72
HLD	109	264	2	72
TAP	109	336	3
TAP	110	0	4
TAP	110	0	5
BRK	110	96	1
BRK	110	96	6
TAP	110	192	0
TAP	110	192	1
TAP	110	240	2
TAP	110	240	7
TAP	110	288	3
TAP	110	288	6
TAP	111	0	2
HLD	111	0	4	72
HLD	111	72	5	72
TAP	111	144	6
TAP	111	192	6
TAP	111	192	7
TAP	111	240	0
TAP	111	240	5
TAP	111	288	1
TAP	111	288	4
HLD	112	0	3	72
TAP	112	0	5
HLD	112	72	2	72
TAP	112	144	1
TAP	112	192	0
TAP	112	192	1
TAP	112	240	2
TAP	112	240	7
TAP	112	288	3
STR	112	288	6
SI_	112	288	6	96	48	3
STR	113	0	2
SI_	113	0	2	96	48	7
STR	113	96	5
SI_	113	96	5	96	48	0
STR	113	192	1
SI_	113	192	1	96	48	4
STR	113	288	6
SCL	113	288	6	96	192	1
BRK	114	0	3
XTP	114	288	1
XTP	114	288	6
XTP	115	0	7
XTP	115	32	7
XTP	115	64	7
XTP	115	96	0
XTP	115	128	0
XTP	115	160	0
XTP	115	192	7
BRK	115	288	0
BRK	115	288	6
TAP	116	0	5
TAP	116	48	4
TAP	116	96	3
TAP	116	96	6
TAP	116	144	3
TAP	116	144	6
TAP	116	192	2
TAP	116	240	3
TAP	116	288	1
TAP	116	288	4
TAP	116	336	1
TAP	116	336	4
TAP	117	0	0
TAP	117	48	0
TAP	117	96	1
TAP	117	96	7
TAP	117	144	1
TAP	117	144	7
BST	117	192	2
SI_	117	192	2	96	48	7
BST	117	192	6
SI_	117	192	6	96	48	3
BRK	118	0	0
BRK	118	0	4
HLD	122	0	2	336
HLD	122	0	5	432
HLD	124	0	3	336
HLD	124	0	4	432

T_REC_TAP	344
T_REC_BRK	49
T_REC_XTP	90
T_REC_HLD	48
T_REC_XHO	21
T_REC_STR	28
T_REC_BST	2
T_REC_XST	7
T_REC_TTP	0
T_REC_THO	3
T_REC_SLD	37
T_REC_ALL	629
T_NUM_TAP	469
T_NUM_BRK	51
T_NUM_HLD	72
T_NUM_SLD	37
T_NUM_ALL	629
T_JUDGE_TAP	520
T_JUDGE_HLD	222
T_JUDGE_SLD	37
T_JUDGE_ALL	779
TTM_EACHPAIRS	172
TTM_SCR_TAP	234500
TTM_SCR_BRK	132600
TTM_SCR_HLD	72000
TTM_SCR_SLD	55500
TTM_SCR_ALL	494600
TTM_SCR_S	474850
TTM_SCR_SS	489500
TTM_RAT_ACV	10104

