VERSION	0.00.00	1.03.00
FES_MODE	0
BPM_DEF	212.000	212.000	212.000	212.000
MET_DEF	4	4
RESOLUTION	384
CLK_DEF	384
COMPATIBLE_CODE	MA2

BPM	0	0	212.000
MET	0	0	4	4

TTP	2	0	4	B	0	L1
TTP	2	0	5	B	0	L1
TTP	4	0	2	B	0	L1
TTP	4	0	3	B	0	L1
TTP	6	0	0	B	0	L1
TTP	6	0	1	B	0	L1
TTP	8	0	6	B	0	L1
TTP	8	0	7	B	0	L1
XHO	10	0	1	192
XTP	10	192	0
HLD	11	0	6	192
TAP	11	192	7
HLD	12	0	1	192
TAP	12	192	0
TAP	13	0	7
TAP	13	96	7
TAP	13	192	0
TAP	13	192	6
TAP	14	0	5
TAP	14	96	5
TAP	14	192	4
TAP	15	0	2
TAP	15	96	2
TAP	15	192	3
TAP	16	0	4
TAP	16	96	4
TAP	16	192	3
TAP	16	288	3
XTP	17	0	3
XTP	17	0	4
XTP	17	192	2
XTP	17	192	5
TAP	18	0	6
XTP	18	96	6
TAP	18	192	7
TAP	18	288	7
TAP	19	0	0
TAP	19	96	0
TAP	19	192	1
TAP	19	192	7
TAP	20	0	2
TAP	20	96	2
TAP	20	192	3
TAP	20	288	3
TAP	21	0	3
TAP	21	0	4
TAP	21	96	3
TAP	21	96	4
TAP	21	192	2
TAP	21	192	5
TAP	22	0	6
TAP	22	96	6
TAP	22	192	7
TAP	22	288	7
TAP	23	0	0
TAP	23	96	0
TAP	23	192	1
TAP	23	288	1
TAP	24	0	2
TAP	24	48	2
TAP	24	96	2
TAP	24	192	4
TAP	24	240	4
TAP	24	288	4
BRK	25	0	2
BRK	25	0	5
STR	26	0	1
SI_	26	0	1	96	192	4
STR	27	0	5
SI_	27	0	5	96	192	0
STR	28	0	1
SCR	28	0	1	96	192	4
TAP	29	0	5
TAP	29	192	3
TAP	29	192	4
STR	30	0	5
SI_	30	0	5	96	192	2
STR	31	0	1
SI_	31	0	1	96	192	5
TAP	32	0	6
TAP	32	96	6
TAP	32	192	7
TAP	32	288	7
XTP	33	0	0
XTP	33	0	7
XTP	33	96	0
XTP	33	96	7
XTP	33	192	1
XTP	33	192	6
XTP	33	288	1
XTP	33	288	6
TAP	34	0	5
XTP	34	96	5
TAP	34	192	4
TAP	34	288	4
TAP	35	0	3
TAP	35	96	3
TAP	35	192	2
TAP	35	288	2
TAP	36	0	1
TAP	36	96	1
TAP	36	192	0
TAP	36	288	0
STR	37	0	0
SI_	37	0	0	96	192	4
STR	37	0	7
SI_	37	0	7	96	192	3
XTP	38	0	5
XTP	38	192	2
XTP	38	192	3
XTP	39	0	3
XTP	39	0	4
XTP	39	192	2
XTP	39	192	5
TAP	40	0	1
TAP	40	96	1
TAP	40	192	0
TAP	40	288	0
XTP	41	0	0
XTP	41	0	7
XTP	41	96	0
XTP	41	96	7
BRK	41	192	1
BRK	41	192	6
STR	42	0	0
SXL	42	0	0	96	480	3
STR	44	0	4
SXL	44	0	4	96	480	7
STR	46	0	0
SXL	46	0	0	96	480	3
XTP	48	0	4
TAP	48	192	5
TAP	49	0	1
TAP	49	0	6
TAP	49	192	1
TAP	49	192	6
HLD	50	0	2	192
TAP	50	192	3
HLD	51	0	5	192
TAP	51	192	4
HLD	52	0	2	192
TAP	52	192	3
TAP	53	0	4
TAP	53	0	5
TAP	53	192	3
TAP	53	192	6
HLD	54	0	5	192
HLD	54	192	4	192
HLD	55	0	3	192
TAP	55	192	2
TAP	56	0	1
TAP	56	96	1
TAP	56	192	0
TAP	56	288	0
TAP	57	0	0
TAP	57	0	7
TAP	57	96	0
TAP	57	96	7
BRK	57	192	1
BRK	57	192	6
TAP	58	0	5
TAP	58	96	5
TAP	58	192	4
TAP	58	192	5
TAP	58	288	4
TAP	58	288	5
TAP	59	0	2
TAP	59	96	2
TAP	59	192	2
TAP	59	192	3
TAP	59	288	2
TAP	59	288	3
TAP	60	0	1
TAP	60	96	1
TAP	60	192	0
TAP	60	288	0
XTP	61	0	0
XTP	61	0	7
XTP	61	96	1
XTP	61	96	6
XTP	61	192	2
XTP	61	192	5
TAP	62	0	6
TAP	62	96	6
TAP	62	192	7
TAP	62	288	7
TAP	63	0	0
TAP	63	96	0
TAP	63	192	1
TAP	63	288	1
XTP	64	0	2
XTP	64	0	3
XTP	64	192	4
XTP	64	192	5
TAP	65	0	3
TAP	65	0	4
TAP	65	96	3
TAP	65	96	4
TAP	65	192	2
TAP	65	192	5
TAP	66	0	1
TAP	66	96	1
TAP	66	192	0
TAP	66	192	1
TAP	66	288	0
TAP	66	288	1
TAP	67	0	6
TAP	67	96	6
TAP	67	192	6
TAP	67	192	7
TAP	67	288	6
TAP	67	288	7
TAP	68	0	5
TAP	68	96	5
TAP	68	192	4
TAP	68	288	4
TAP	69	0	3
TAP	69	96	3
TAP	69	192	2
TAP	69	192	4
XTP	70	0	0
XTP	70	0	1
XTP	70	192	2
XTP	70	192	7
XTP	71	0	3
XTP	71	0	6
XTP	71	192	4
XTP	71	192	5
TAP	72	0	3
TAP	72	0	4
TAP	72	96	3
TAP	72	96	4
TAP	72	192	2
TAP	72	192	5
TAP	72	288	2
TAP	72	288	5
TAP	73	0	1
TAP	73	0	6
TAP	73	96	1
TAP	73	96	6
BRK	73	192	0
BRK	73	192	7
STR	74	0	1
SLR	74	0	1	96	480	5
STR	76	0	6
SI_	76	0	6	96	192	3
STR	77	0	2
SI_	77	0	2	96	192	5
TAP	78	0	6
TAP	78	96	5
TAP	78	192	4
TAP	78	192	5
TAP	79	0	2
TAP	79	96	2
TAP	79	192	2
TAP	79	192	3
TAP	80	0	3
TAP	80	0	4
TAP	80	96	3
TAP	80	96	4
TAP	80	192	2
TAP	80	192	5
TAP	80	288	2
TAP	80	288	5
BRK	81	0	1
BRK	81	0	6
TTP	82	0	3	E	0	L1
TTP	82	0	5	E	0	L1
TTP	83	0	2	B	0	L1
TTP	83	0	5	B	0	L1
TTP	84	0	1	B	0	L1
TTP	84	0	6	B	0	L1
XTP	85	0	0
XTP	85	0	7
XTP	85	96	0
XTP	85	96	7
BRK	85	192	1
BRK	85	192	6
TAP	86	0	5
TAP	86	96	5
TAP	86	192	4
TAP	86	192	5
TAP	86	288	4
TAP	86	288	5
TAP	87	0	2
TAP	87	96	2
TAP	87	192	2
TAP	87	192	3
TAP	87	288	2
TAP	87	288	3
XTP	88	0	3
XTP	88	0	4
XTP	88	192	2
XTP	88	192	5
TAP	89	0	1
TAP	89	0	6
TAP	89	96	1
TAP	89	96	6
BRK	89	192	0
BRK	89	192	7
TAP	90	0	6
TAP	90	96	6
TAP	90	192	7
TAP	90	288	7
TAP	91	0	0
TAP	91	96	0
TAP	91	192	1
TAP	91	288	1
TAP	92	0	2
TAP	92	96	2
TAP	92	192	3
TAP	92	288	3
TAP	93	0	4
TAP	93	96	4
TAP	93	192	3
TAP	93	192	5
TTP	94	0	6	B	0	L1
TTP	94	192	5	B	0	L1
TTP	95	0	5	E	0	L1
TTP	96	0	3	E	0	L1
TTP	96	192	2	B	0	L1
TTP	97	0	1	B	0	L1
TTP	98	0	0	C	1	L1
TAP	100	0	7
TAP	100	96	7
TAP	100	192	0
TAP	100	288	0
TAP	101	0	0
TAP	101	0	7
TAP	101	96	0
TAP	101	96	7
BRK	101	192	1
BRK	101	192	6
TAP	102	0	5
TAP	102	96	5
TAP	102	192	4
TAP	102	192	5
TAP	102	288	3
TAP	102	288	6
TAP	103	0	2
TAP	103	96	2
TAP	103	192	2
TAP	103	192	3
TAP	103	288	1
TAP	103	288	4
TAP	104	0	0
TAP	104	96	0
TAP	104	192	7
TAP	104	288	7
TAP	105	0	0
TAP	105	0	7
TAP	105	96	0
TAP	105	96	7
TAP	105	192	1
TAP	105	192	6
TAP	106	0	2
TAP	106	96	2
TAP	106	192	2
TAP	106	192	3
TAP	106	288	1
TAP	106	288	4
TAP	107	0	5
TAP	107	96	5
TAP	107	192	4
TAP	107	192	5
TAP	107	288	3
TAP	107	288	6
TAP	108	0	7
TAP	108	96	7
TAP	108	192	0
TAP	108	288	0
XTP	109	0	0
XTP	109	0	7
XTP	109	192	1
XTP	109	192	6
TAP	110	0	2
TAP	110	0	5
BRK	110	96	2
BRK	110	96	5
TAP	110	192	6
TAP	110	288	6
TAP	111	0	7
TAP	111	96	7
TAP	111	192	0
TAP	111	288	0
TAP	112	0	1
TAP	112	96	1
TAP	112	192	2
TAP	112	288	2
TAP	113	0	3
TAP	113	0	4
TAP	113	96	3
TAP	113	96	4
TAP	113	192	2
TAP	113	192	5
XTP	114	0	6
XTP	114	192	0
TAP	115	0	0
TAP	115	0	7
TAP	115	96	0
TAP	115	96	7
TAP	115	192	1
TAP	115	192	6
TAP	116	0	2
TAP	116	48	2
TAP	116	96	2
TAP	116	192	3
TAP	116	240	3
TAP	116	288	3
TAP	117	0	4
TAP	117	48	4
TAP	117	96	4
BRK	117	192	2
BRK	117	192	5
TTP	118	0	2	B	0	L1
TTP	118	0	3	B	0	L1
TTP	120	0	0	B	0	L1
TTP	120	0	1	B	0	L1
TTP	122	0	6	B	0	L1
TTP	122	0	7	B	0	L1
TTP	124	0	4	B	0	L1
TTP	124	0	5	B	0	L1

T_REC_TAP	279
T_REC_BRK	20
T_REC_XTP	59
T_REC_HLD	8
T_REC_XHO	1
T_REC_STR	13
T_REC_BST	0
T_REC_XST	0
T_REC_TTP	29
T_REC_THO	0
T_REC_SLD	13
T_REC_ALL	422
T_NUM_TAP	380
T_NUM_BRK	20
T_NUM_HLD	9
T_NUM_SLD	13
T_NUM_ALL	422
T_JUDGE_TAP	400
T_JUDGE_HLD	36
T_JUDGE_SLD	13
T_JUDGE_ALL	449
TTM_EACHPAIRS	100
TTM_SCR_TAP	190000
TTM_SCR_BRK	52000
TTM_SCR_HLD	9000
TTM_SCR_SLD	19500
TTM_SCR_ALL	270500
TTM_SCR_S	260450
TTM_SCR_SS	268500
TTM_RAT_ACV	10074

