VERSION	0.00.00	1.03.00
FES_MODE	0
BPM_DEF	212.000	212.000	212.000	212.000
MET_DEF	4	4
RESOLUTION	384
CLK_DEF	384
COMPATIBLE_CODE	MA2

BPM	0	0	212.000
MET	0	0	4	4

TAP	10	0	0
TAP	11	0	0
TAP	12	0	7
TAP	13	0	7
HLD	14	0	0	384
HLD	16	0	7	384
TAP	18	0	0
TAP	18	192	0
TAP	19	0	1
TAP	20	0	2
TAP	20	192	2
TAP	21	0	3
TAP	22	0	4
TAP	22	192	4
TAP	23	0	5
TAP	24	0	6
TAP	24	192	6
XTP	25	0	0
XTP	25	0	7
STR	26	0	0
SI_	26	0	0	96	672	3
STR	30	0	7
SI_	30	0	7	96	672	4
XTP	33	0	3
XTP	33	0	4
TAP	34	0	2
TAP	34	192	2
TAP	35	0	1
TAP	35	192	1
TAP	36	0	0
TAP	36	192	0
XTP	37	0	0
XTP	37	0	7
TAP	38	0	6
TAP	38	192	6
TAP	39	0	5
TAP	39	192	5
TAP	40	0	4
TAP	40	192	4
XTP	41	0	3
XTP	41	0	4
TTP	42	0	5	B	0	L1
TTP	43	0	6	B	0	L1
TTP	44	0	7	B	0	L1
TTP	45	0	0	B	0	L1
TTP	46	0	1	B	0	L1
TTP	47	0	2	B	0	L1
TTP	48	0	3	B	0	L1
TTP	49	0	0	C	0	L1
TTP	50	0	1	E	0	L1
TTP	51	0	0	E	0	L1
TTP	52	0	7	E	0	L1
TTP	53	0	6	E	0	L1
TTP	54	0	4	B	0	L1
TTP	54	0	5	B	0	L1
TTP	55	0	2	B	0	L1
TTP	55	0	3	B	0	L1
THO	56	0	0	384	C	0	L1
TAP	58	0	0
TAP	58	192	0
TAP	59	0	7
XTP	59	192	0
XTP	59	192	7
TAP	60	0	0
TAP	60	96	0
TAP	60	192	0
TAP	61	0	1
TAP	61	192	1
TAP	62	0	2
TAP	62	96	2
TAP	62	192	2
TAP	63	0	3
TAP	63	192	3
HLD	64	0	3	192
HLD	64	0	4	192
TAP	65	0	3
TAP	65	0	4
TAP	65	96	3
TAP	65	96	4
BRK	65	192	3
BRK	65	192	4
TAP	66	0	4
TAP	66	96	4
TAP	66	192	4
TAP	67	0	5
TAP	67	192	5
TAP	68	0	6
TAP	68	96	6
TAP	68	192	6
XTP	69	0	0
XTP	69	0	7
XTP	69	192	0
XTP	69	192	7
HLD	70	0	0	192
HLD	71	0	7	192
XST	72	0	0
SI_	72	0	0	96	288	3
XST	72	0	7
SI_	72	0	7	96	288	4
TTP	74	0	4	E	0	L1
TTP	75	0	3	B	0	L1
TTP	75	0	4	B	0	L1
TTP	76	0	2	B	0	L1
TTP	76	0	5	B	0	L1
TTP	77	0	0	C	0	L1
XTP	78	0	0
TAP	78	192	0
TAP	79	0	0
TAP	79	0	1
TAP	80	0	7
TAP	80	192	7
TAP	81	0	6
TAP	81	0	7
HLD	82	0	4	384
HLD	82	0	5	384
HLD	84	0	2	384
HLD	84	0	3	384
TAP	86	0	4
TAP	86	96	4
TAP	86	192	4
TAP	87	0	3
TAP	87	96	3
TAP	87	192	3
XHO	88	0	3	192
XHO	88	0	4	192
TAP	89	0	3
TAP	89	0	4
TAP	89	96	3
TAP	89	96	4
BRK	89	192	3
BRK	89	192	4
TAP	90	0	2
TAP	90	96	2
TAP	90	192	2
TAP	91	0	0
TAP	91	0	1
TAP	91	96	0
TAP	91	96	1
TAP	91	192	0
TAP	91	192	1
TAP	92	0	7
TAP	92	96	7
TAP	92	192	7
TAP	93	0	6
TAP	93	0	7
TAP	93	96	6
TAP	93	96	7
TAP	93	192	6
TAP	93	192	7
HLD	94	0	6	192
HLD	94	0	7	192
HLD	95	0	0	192
HLD	95	0	1	192
XST	96	0	0
SI_	96	0	0	96	288	3
XST	96	0	7
SI_	96	0	7	96	288	4
TTP	98	0	4	E	0	L1
TTP	99	0	3	B	0	L1
TTP	99	0	4	B	0	L1
THO	100	0	0	384	C	1	L1
TAP	102	0	0
TAP	102	192	0
TAP	103	0	1
TAP	103	96	1
TAP	103	192	1
TAP	104	0	2
TAP	104	192	2
TAP	105	0	3
TAP	105	0	4
TAP	105	96	3
TAP	105	96	4
TAP	105	192	3
TAP	105	192	4
TAP	106	0	5
TAP	106	192	5
TAP	107	0	6
TAP	107	96	6
TAP	107	192	6
TAP	108	0	7
TAP	108	192	7
BRK	109	0	0
BRK	109	0	7
TAP	110	0	7
TAP	110	96	7
TAP	110	192	6
TAP	110	288	6
TAP	111	0	5
TAP	111	96	5
TAP	111	192	4
TAP	111	192	5
TAP	112	0	3
TAP	112	96	3
TAP	112	192	2
TAP	112	288	2
TAP	113	0	1
TAP	113	96	1
TAP	113	192	0
TAP	113	192	1
HLD	114	0	0	192
HLD	114	0	7	192
TAP	115	0	0
TAP	115	0	7
TAP	115	96	0
TAP	115	96	7
XTP	115	192	0
XTP	115	192	7
TAP	116	0	1
TAP	116	0	6
TAP	116	96	1
TAP	116	96	6
TAP	116	192	1
TAP	116	192	6
TAP	117	0	2
TAP	117	0	5
TAP	117	96	2
TAP	117	96	5
TAP	117	192	2
TAP	117	192	5
XHO	118	0	3	336
XHO	118	0	4	336
HLD	120	0	3	336
HLD	120	0	4	336
HLD	122	0	2	336
HLD	122	0	5	336
HLD	124	0	2	336
HLD	124	0	5	336

T_REC_TAP	139
T_REC_BRK	6
T_REC_XTP	17
T_REC_HLD	22
T_REC_XHO	4
T_REC_STR	2
T_REC_BST	0
T_REC_XST	4
T_REC_TTP	25
T_REC_THO	2
T_REC_SLD	6
T_REC_ALL	227
T_NUM_TAP	187
T_NUM_BRK	6
T_NUM_HLD	28
T_NUM_SLD	6
T_NUM_ALL	227
T_JUDGE_TAP	193
T_JUDGE_HLD	168
T_JUDGE_SLD	6
T_JUDGE_ALL	367
TTM_EACHPAIRS	49
TTM_SCR_TAP	93500
TTM_SCR_BRK	15600
TTM_SCR_HLD	28000
TTM_SCR_SLD	9000
TTM_SCR_ALL	146100
TTM_SCR_S	141150
TTM_SCR_SS	145500
TTM_RAT_ACV	10041

