VERSION	0.00.00	1.03.00
FES_MODE	0
BPM_DEF	195.000	195.000	195.000	195.000
MET_DEF	4	4
RESOLUTION	384
CLK_DEF	384
COMPATIBLE_CODE	MA2

BPM	0	0	195.000
MET	0	0	4	4

STR	1	0	4
SCR	1	0	4	96	96	7
TTP	1	192	4	E	0	M1
STR	2	0	3
SCL	2	0	3	96	96	0
TTP	2	192	4	E	0	M1
STR	3	0	4
SCR	3	0	4	96	96	7
STR	3	192	3
SCL	3	192	3	96	96	0
TTP	4	0	4	E	0	M1
TTP	4	96	3	E	0	M1
TTP	4	96	5	E	0	M1
TTP	4	192	0	C	0	M1
TTP	4	192	2	E	0	M1
TTP	4	192	6	E	0	M1
TAP	5	0	1
TAP	5	0	7
TAP	5	48	2
TAP	5	96	4
TAP	5	144	1
TAP	5	192	0
TAP	5	192	5
TAP	5	240	4
TAP	5	288	3
TAP	5	336	5
TAP	6	0	1
TAP	6	0	6
TAP	6	48	2
TAP	6	96	4
TAP	6	144	1
TAP	6	192	0
TAP	6	192	5
TAP	6	240	4
TAP	6	288	3
TAP	6	336	6
TAP	7	0	2
TAP	7	0	7
TAP	7	48	3
TAP	7	96	4
TAP	7	144	1
TAP	7	192	0
TAP	7	192	6
TAP	7	240	4
TAP	7	288	3
TAP	7	336	6
TAP	8	0	2
TAP	8	0	7
TAP	8	48	3
TAP	8	96	4
TAP	8	144	1
TAP	8	192	0
TAP	8	192	5
TAP	8	240	4
TAP	8	288	3
TAP	8	288	7
TAP	9	0	0
TAP	9	0	6
TAP	9	48	5
TAP	9	96	3
TAP	9	144	6
TAP	9	192	4
TAP	9	192	7
TAP	9	240	3
TAP	9	288	4
TAP	9	336	1
TAP	10	0	0
TAP	10	0	6
TAP	10	48	5
TAP	10	96	3
TAP	10	144	4
TAP	10	192	1
TAP	10	192	5
TAP	10	240	3
TAP	10	288	4
TAP	10	336	2
TAP	11	0	1
TAP	11	0	5
TAP	11	48	4
TAP	11	96	3
TAP	11	144	6
TAP	11	192	2
TAP	11	192	7
STR	11	288	0
SI_	11	288	0	96	48	4
STR	12	0	1
SI_	12	0	1	96	48	5
STR	12	96	2
SI_	12	96	2	96	48	6
STR	12	192	4
SI_	12	192	4	96	48	0
BRK	12	288	3
STR	13	0	2
SI_	13	0	2	96	48	7
TAP	13	96	4
STR	13	192	5
SI_	13	192	5	96	48	0
TAP	13	288	3
STR	14	0	2
SI_	14	0	2	96	48	7
TAP	14	96	4
STR	14	192	5
SI_	14	192	5	96	48	0
TAP	14	288	3
STR	15	0	2
SI_	15	0	2	96	48	7
TAP	15	96	4
HLD	15	192	5	96
STR	15	288	3
SCL	15	288	3	96	192	5
TAP	16	0	4
TAP	16	96	4
TAP	16	192	4
TAP	16	288	2
TAP	16	288	6
STR	17	0	5
SI_	17	0	5	96	48	0
TAP	17	48	5
TAP	17	96	3
TAP	17	144	3
STR	17	192	2
SI_	17	192	2	96	48	7
TAP	17	240	2
TAP	17	288	4
TAP	17	336	4
STR	18	0	5
SI_	18	0	5	96	48	0
TAP	18	48	5
TAP	18	96	3
TAP	18	144	3
STR	18	192	2
SI_	18	192	2	96	48	7
TAP	18	240	2
TAP	18	288	4
TAP	18	336	4
HLD	19	0	5	48
HLD	19	48	3	48
HLD	19	96	4	48
HLD	19	144	2	48
HLD	19	192	5	48
HLD	19	240	1	48
HLD	19	288	7	48
HLD	19	336	0	48
HLD	20	0	4	48
HLD	20	48	3	48
HLD	20	96	5	48
HLD	20	144	2	48
HLD	20	192	6	48
HLD	20	240	0	48
BRK	20	288	7
STR	21	0	2
SI_	21	0	2	96	48	6
STR	21	0	3
SI_	21	0	3	96	48	7
TAP	21	192	0
TAP	21	192	5
TAP	21	240	0
TAP	21	240	5
TAP	21	288	0
TAP	21	288	5
TAP	22	0	2
TAP	22	0	7
TAP	22	48	2
TAP	22	48	7
TAP	22	96	3
TAP	22	96	6
HLD	22	144	3	96
TAP	22	144	6
BRK	22	240	7
BRK	22	288	7
STR	23	0	4
SI_	23	0	4	96	48	0
STR	23	0	5
SI_	23	0	5	96	48	1
TAP	23	192	2
TAP	23	192	7
TAP	23	240	2
TAP	23	240	7
TAP	23	288	2
TAP	23	288	7
TAP	24	0	0
TAP	24	0	5
TAP	24	48	0
TAP	24	48	5
TAP	24	96	1
TAP	24	96	4
TAP	24	144	1
HLD	24	144	4	96
BRK	24	240	0
BRK	24	288	0
STR	25	0	2
SCR	25	0	2	96	48	4
STR	25	0	5
SCR	25	0	5	96	48	7
TAP	25	96	2
TAP	25	96	5
STR	25	192	2
SCR	25	192	2	96	48	4
STR	25	192	5
SCR	25	192	5	96	48	7
TAP	25	288	2
TAP	25	288	5
TAP	26	0	1
TAP	26	48	1
TAP	26	96	4
TAP	26	144	4
TAP	26	192	3
TAP	26	240	6
TAP	26	288	4
TAP	26	288	7
STR	27	0	3
SI_	27	0	3	96	48	1
STR	27	96	4
SI_	27	96	4	96	48	6
STR	27	192	2
SI_	27	192	2	96	48	0
STR	27	288	5
SI_	27	288	5	96	48	7
TAP	28	0	1
TAP	28	48	1
TAP	28	96	4
TAP	28	144	4
TAP	28	192	2
TAP	28	240	1
TAP	28	288	0
TAP	28	288	3
STR	29	0	2
SCL	29	0	2	96	48	0
STR	29	0	5
SCL	29	0	5	96	48	3
TAP	29	96	2
TAP	29	96	5
STR	29	192	2
SCL	29	192	2	96	48	0
STR	29	192	5
SCL	29	192	5	96	48	3
TAP	29	288	2
TAP	29	288	5
TAP	30	0	6
TAP	30	48	6
TAP	30	96	3
TAP	30	144	3
TAP	30	192	4
TAP	30	240	1
STR	30	288	0
SI_	30	288	0	96	48	4
TAP	30	288	3
STR	31	0	7
SI_	31	0	7	96	48	3
STR	31	96	1
SI_	31	96	1	96	48	4
STR	31	192	6
SI_	31	192	6	96	48	3
BRK	31	288	0
TAP	32	0	5
TAP	32	48	5
TAP	32	96	3
TAP	32	144	3
TAP	32	192	4
TAP	32	240	2
TAP	32	288	1
TAP	32	288	5
STR	33	0	6
SCL	33	0	6	96	96	1
STR	33	96	1
SCR	33	96	1	96	96	6
TAP	33	192	0
TAP	33	288	0
TAP	34	0	1
TAP	34	0	6
TAP	34	48	1
TAP	34	48	6
STR	34	96	0
SI_	34	96	0	96	48	3
STR	34	96	7
SI_	34	96	7	96	48	4
TAP	34	192	0
TAP	34	192	7
TAP	34	288	2
TAP	34	288	5
STR	35	0	4
SI_	35	0	4	96	48	7
STR	35	96	3
SI_	35	96	3	96	48	0
TAP	35	96	4
TAP	35	192	3
STR	35	192	4
SI_	35	192	4	96	48	7
TAP	35	288	3
TAP	35	288	4
TTP	36	0	1	B	0	M1
TTP	36	0	1	E	0	M1
TTP	36	48	6	B	0	M1
TTP	36	48	7	E	0	M1
STR	36	96	2
SCR	36	96	2	96	48	5
TAP	36	192	7
TAP	36	240	7
TAP	36	288	7
STR	37	0	1
SCR	37	0	1	96	96	6
STR	37	96	6
SCL	37	96	6	96	96	1
TAP	37	192	7
TAP	37	288	7
TAP	38	0	1
TAP	38	0	6
TAP	38	48	2
TAP	38	48	5
STR	38	96	3
SI_	38	96	3	96	48	0
STR	38	96	4
SI_	38	96	4	96	48	7
TAP	38	192	3
TAP	38	192	4
TAP	38	288	2
TAP	38	288	5
STR	39	0	3
SI_	39	0	3	96	48	0
TAP	39	96	3
STR	39	96	4
SI_	39	96	4	96	48	7
STR	39	192	3
SI_	39	192	3	96	48	0
TAP	39	192	4
TAP	39	288	3
STR	39	288	4
SF_	39	288	4	96	48	0
STR	40	96	3
SF_	40	96	3	96	48	7
XTP	40	288	1
XST	40	288	5
SXR	40	288	5	96	960	2
TTP	41	0	1	E	0	M1
TTP	41	192	0	E	0	M1
TTP	42	0	7	E	0	M1
TTP	42	192	0	E	0	M1
TTP	43	0	1	E	0	M1
TTP	43	192	0	E	0	M1
TAP	44	0	2
STR	44	96	2
SCR	44	96	2	96	96	5
STR	45	0	6
SCR	45	0	6	96	96	1
TAP	45	96	3
STR	45	192	2
SCR	45	192	2	96	96	5
TAP	45	288	7
STR	46	0	6
SCR	46	0	6	96	96	1
TAP	46	96	3
STR	46	192	2
SCR	46	192	2	96	96	5
TAP	46	288	7
STR	47	0	6
SCR	47	0	6	96	96	1
TAP	47	96	3
STR	47	192	2
SCR	47	192	2	96	96	5
TAP	47	288	7
TAP	48	0	6
TAP	48	48	6
TAP	48	96	2
TAP	48	144	2
TAP	48	192	4
STR	48	240	4
SCR	48	240	4	96	240	3
TAP	48	288	0
HLD	48	336	0	240
STR	49	288	1
SI_	49	288	1	96	48	5
TAP	49	288	5
BRK	50	0	1
TAP	50	0	7
TAP	50	96	2
STR	50	96	6
SI_	50	96	6	96	48	2
TAP	50	192	0
BRK	50	192	6
TAP	50	288	1
TAP	50	288	5
STR	51	0	2
SI_	51	0	2	96	48	0
STR	51	0	6
SI_	51	0	6	96	48	4
TAP	51	96	2
TAP	51	96	6
STR	51	192	2
SI_	51	192	2	96	48	0
STR	51	192	6
SI_	51	192	6	96	48	4
TAP	51	288	2
TAP	51	288	6
STR	52	0	2
SCL	52	0	2	96	96	6
STR	52	96	6
SCR	52	96	6	96	96	2
TTP	52	192	0	C	1	M1
STR	52	288	7
SI_	52	288	7	96	48	3
STR	53	0	0
SI_	53	0	0	96	48	4
STR	53	96	1
SI_	53	96	1	96	48	5
STR	53	192	2
SI_	53	192	2	96	48	6
BRK	53	288	4
HLD	54	0	5	96
HLD	54	96	7	96
HLD	54	192	0	96
TAP	54	288	2
TAP	55	0	3
TAP	55	0	5
TAP	55	48	4
TAP	55	96	2
TAP	55	96	6
TAP	55	144	5
TAP	55	192	4
TAP	55	240	3
TAP	55	288	2
TAP	55	288	4
STR	56	0	1
SI_	56	0	1	96	48	5
TAP	56	0	5
TAP	56	96	1
STR	56	96	6
SI_	56	96	6	96	48	2
TAP	56	192	0
TAP	56	192	6
TAP	56	288	0
TAP	57	0	1
STR	57	0	3
SI_	57	0	3	96	48	0
TAP	57	96	3
STR	57	96	4
SI_	57	96	4	96	48	7
TAP	57	192	4
STR	57	192	6
SI_	57	192	6	96	48	2
BRK	57	288	0
TAP	57	288	6
STR	58	0	1
SUR	58	0	1	96	48	5
TAP	58	96	5
STR	58	192	6
SUL	58	192	6	96	48	2
TAP	58	288	2
STR	59	0	1
SUR	59	0	1	96	48	5
TAP	59	96	6
TAP	59	192	7
TAP	59	240	7
TAP	59	288	0
STR	60	0	2
SUL	60	0	2	96	48	6
TAP	60	96	4
STR	60	192	5
SUR	60	192	5	96	48	1
STR	60	288	3
SCL	60	288	3	96	192	5
TTP	61	0	0	C	1	M1
TAP	61	288	1
TAP	61	288	6
STR	62	0	7
SCL	62	0	7	96	96	3
STR	62	96	3
SCL	62	96	3	96	96	7
STR	62	192	7
SCL	62	192	7	96	96	3
STR	62	288	3
SCL	62	288	3	96	96	7
STR	63	0	7
SCL	63	0	7	96	96	3
TAP	63	96	3
TTP	63	192	0	C	1	M1
STR	64	0	6
SI_	64	0	6	96	48	4
STR	64	0	7
SI_	64	0	7	96	48	3
XTP	64	96	6
XTP	64	96	7
STR	64	192	0
SI_	64	192	0	96	48	4
STR	64	192	1
SI_	64	192	1	96	48	3
XST	64	288	0
SCL	64	288	0	96	144	3
XTP	64	288	1
TTP	65	0	0	C	1	M1
BRK	65	192	0
BRK	65	288	1
BRK	65	288	6
STR	66	0	2
SI_	66	0	2	96	48	6
STR	66	0	3
SI_	66	0	3	96	48	7
TAP	66	192	0
TAP	66	192	5
TAP	66	240	1
TAP	66	240	4
TAP	66	288	2
TAP	66	288	3
TAP	67	0	0
TAP	67	0	1
TAP	67	48	2
TAP	67	48	7
TAP	67	96	3
TAP	67	96	6
HLD	67	144	4	96
TAP	67	144	5
BRK	67	240	7
BRK	67	288	7
STR	68	0	4
SI_	68	0	4	96	48	0
STR	68	0	5
SI_	68	0	5	96	48	1
TAP	68	192	2
TAP	68	192	7
TAP	68	240	3
TAP	68	240	6
TAP	68	288	4
TAP	68	288	5
TAP	69	0	6
TAP	69	0	7
TAP	69	48	0
TAP	69	48	5
TAP	69	96	1
TAP	69	96	4
TAP	69	144	2
STR	69	144	3
SI_	69	144	3	96	48	7
BRK	69	240	0
BRK	69	288	0
XTP	70	0	2
XTP	70	0	6
TAP	70	48	3
TAP	70	96	5
XTP	70	144	2
XTP	70	192	0
XTP	70	192	4
TAP	70	240	5
TAP	70	288	2
XTP	70	336	6
XTP	71	0	4
XTP	71	0	7
TAP	71	48	3
TAP	71	96	6
XTP	71	144	2
XTP	71	192	1
XTP	71	192	5
TAP	71	240	4
TAP	71	288	2
TAP	71	336	6
XTP	72	0	1
XTP	72	0	5
TAP	72	48	4
TAP	72	96	2
XTP	72	144	5
XTP	72	192	3
XTP	72	192	7
TAP	72	240	2
TAP	72	288	5
XTP	72	336	1
XTP	73	0	0
XTP	73	0	3
TAP	73	48	4
TAP	73	96	1
XTP	73	144	5
XTP	73	192	2
XTP	73	192	6
TAP	73	240	3
TAP	73	288	5
TAP	73	336	1
XTP	74	0	2
XTP	74	0	6
TAP	74	48	3
TAP	74	96	5
XTP	74	144	2
XTP	74	192	0
XTP	74	192	4
TAP	74	240	5
TAP	74	288	2
XTP	74	336	6
XTP	75	0	4
XTP	75	0	7
TAP	75	48	3
TAP	75	96	6
XTP	75	144	2
XTP	75	192	1
XTP	75	192	5
TAP	75	240	4
TAP	75	288	2
TAP	75	336	6
TAP	76	0	1
TAP	76	0	5
TAP	76	48	4
TAP	76	96	2
TAP	76	144	5
TAP	76	192	3
TAP	76	192	7
TAP	76	240	1
STR	76	288	0
SI_	76	288	0	96	48	4
STR	77	0	1
SI_	77	0	1	96	48	5
STR	77	96	2
SI_	77	96	2	96	48	6
STR	77	192	4
SI_	77	192	4	96	48	0
BRK	77	288	3
TAP	78	0	2
TAP	78	48	3
STR	78	96	4
SXL	78	96	4	96	192	3
TAP	78	144	5
TTP	79	0	0	C	1	M1
HLD	80	0	5	576
TAP	81	0	3
TAP	81	192	4
STR	81	288	4
SUL	81	288	4	96	192	3
HLD	83	0	2	576
TAP	84	0	4
TAP	84	192	3
STR	84	288	3
SUL	84	288	3	96	192	4
TTP	86	0	5	E	0	M1
TTP	86	96	4	E	0	M1
TTP	86	192	3	E	0	M1
TTP	86	288	0	C	0	M1
STR	87	0	6
SI_	87	0	6	96	48	4
TAP	87	0	7
TAP	87	96	0
TAP	87	192	0
STR	87	192	1
SI_	87	192	1	96	48	3
TAP	87	288	7
STR	88	0	6
SI_	88	0	6	96	48	4
TAP	88	0	7
TAP	88	96	0
TAP	88	192	0
TAP	88	192	1
STR	88	288	7
SCL	88	288	7	96	96	3
STR	89	0	3
SCL	89	0	3	96	96	7
STR	89	96	7
SCL	89	96	7	96	96	3
STR	89	192	3
SCL	89	192	3	96	96	7
STR	89	288	7
SCL	89	288	7	96	192	7
TTP	90	0	0	C	1	M1
STR	90	288	3
SI_	90	288	3	96	48	1
STR	90	288	5
SI_	90	288	5	96	48	7
TAP	91	0	3
TAP	91	0	5
STR	91	96	2
SI_	91	96	2	96	48	0
STR	91	96	4
SI_	91	96	4	96	48	6
TAP	91	192	2
TAP	91	192	4
STR	91	288	3
SI_	91	288	3	96	48	1
STR	91	288	5
SI_	91	288	5	96	48	7
TAP	92	0	3
TAP	92	0	5
TAP	92	96	2
TAP	92	96	4
TAP	92	192	1
TAP	92	192	5
STR	92	288	4
SCR	92	288	4	96	96	0
STR	93	0	0
SCR	93	0	0	96	96	4
STR	93	96	4
SCR	93	96	4	96	96	0
STR	93	192	0
SCR	93	192	0	96	96	4
STR	93	288	4
SCR	93	288	4	96	192	4
TTP	94	0	0	C	1	M1
BRK	94	192	0
BRK	94	288	0
STR	95	0	1
SI_	95	0	1	96	48	3
STR	95	96	0
SI_	95	96	0	96	48	4
TAP	95	96	1
TAP	95	192	0
STR	95	192	1
SI_	95	192	1	96	48	3
STR	95	288	0
SI_	95	288	0	96	48	4
TAP	95	288	1
TAP	96	0	0
STR	96	0	1
SI_	96	0	1	96	48	3
TAP	96	96	1
TAP	96	96	7
TAP	96	192	7
TAP	96	288	2
TAP	96	288	4
STR	97	0	6
SI_	97	0	6	96	48	4
TAP	97	96	6
STR	97	96	7
SI_	97	96	7	96	48	3
STR	97	192	6
SI_	97	192	6	96	48	4
TAP	97	192	7
TAP	97	288	6
STR	97	288	7
SI_	97	288	7	96	48	3
STR	98	0	6
SI_	98	0	6	96	48	4
TAP	98	0	7
TAP	98	96	0
TAP	98	96	6
BRK	98	192	2
BRK	98	192	3
BRK	98	288	0
BRK	98	288	5
STR	99	0	1
SI_	99	0	1	96	48	4
STR	99	96	0
SI_	99	96	0	96	48	5
TAP	99	96	1
TAP	99	192	0
STR	99	192	1
SI_	99	192	1	96	48	4
STR	99	288	0
SI_	99	288	0	96	48	5
TAP	99	288	1
TAP	100	0	0
STR	100	0	1
SI_	100	0	1	96	48	4
TAP	100	96	1
TAP	100	96	7
TAP	100	192	7
TAP	100	288	2
TAP	100	288	4
STR	101	0	6
SI_	101	0	6	96	48	3
TAP	101	96	6
STR	101	96	7
SI_	101	96	7	96	48	2
STR	101	192	6
SI_	101	192	6	96	48	3
TAP	101	192	7
TAP	101	288	6
STR	101	288	7
SI_	101	288	7	96	48	2
STR	102	0	6
SI_	102	0	6	96	48	3
TAP	102	0	7
TAP	102	96	0
TAP	102	96	6
BRK	102	192	2
BRK	102	288	0
BRK	102	288	5
STR	103	0	2
SI_	103	0	2	96	48	0
TAP	103	96	2
STR	103	96	3
SI_	103	96	3	96	48	7
STR	103	192	2
SI_	103	192	2	96	48	0
TAP	103	192	3
TAP	103	288	2
STR	103	288	3
SI_	103	288	3	96	48	7
STR	104	0	2
SI_	104	0	2	96	48	0
TAP	104	0	3
TAP	104	96	2
TAP	104	96	4
TAP	104	192	3
TAP	104	192	5
TAP	104	288	2
TAP	104	288	6
STR	105	0	5
SI_	105	0	5	96	48	7
STR	105	96	4
SI_	105	96	4	96	48	0
TAP	105	96	5
TAP	105	192	4
STR	105	192	5
SI_	105	192	5	96	48	7
TAP	105	288	3
TAP	105	288	5
BRK	106	0	2
BRK	106	0	4
BRK	106	96	0
BRK	106	96	6
BRK	106	192	3
BRK	106	192	5
BRK	106	288	1
BRK	106	288	7
STR	107	0	2
SI_	107	0	2	96	48	0
TAP	107	96	2
STR	107	96	5
SI_	107	96	5	96	48	7
STR	107	192	3
SI_	107	192	3	96	48	0
TAP	107	192	5
TAP	107	288	3
STR	107	288	4
SI_	107	288	4	96	48	7
TAP	108	0	2
TAP	108	0	4
TAP	108	96	2
TAP	108	96	4
TAP	108	192	3
TAP	108	192	5
TAP	108	288	3
TAP	108	288	5
STR	109	0	2
SI_	109	0	2	96	48	7
TAP	109	48	2
STR	109	96	5
SI_	109	96	5	96	48	0
TAP	109	144	5
STR	109	192	3
SI_	109	192	3	96	48	6
TAP	109	240	3
STR	109	288	4
SI_	109	288	4	96	48	1
TAP	109	336	4
STR	110	0	2
SI_	110	0	2	96	48	7
TAP	110	48	2
STR	110	96	5
SI_	110	96	5	96	48	0
TAP	110	144	5
STR	110	192	3
SI_	110	192	3	96	48	7
TAP	110	240	3
TAP	110	288	4
STR	111	0	4
SI_	111	0	4	96	48	0
STR	111	0	5
SI_	111	0	5	96	48	0
TAP	111	96	4
TAP	111	96	5
TAP	111	192	1
TAP	111	192	7
TAP	111	240	2
TAP	111	240	6
TAP	111	288	3
TAP	111	288	5
TAP	112	0	7
TAP	112	48	0
TAP	112	48	6
TAP	112	96	1
TAP	112	96	5
TAP	112	144	2
HLD	112	144	4	96
BRK	112	240	3
BRK	112	288	0
STR	113	0	2
SI_	113	0	2	96	48	7
STR	113	0	3
SI_	113	0	3	96	48	7
TAP	113	96	2
TAP	113	96	3
TAP	113	192	0
TAP	113	192	6
TAP	113	240	1
TAP	113	240	5
TAP	113	288	2
TAP	113	288	4
TAP	114	0	0
TAP	114	48	1
TAP	114	48	7
TAP	114	96	2
TAP	114	96	6
STR	114	144	3
SI_	114	144	3	96	48	0
TAP	114	144	5
BRK	114	240	4
BRK	114	288	7
STR	115	0	2
SI_	115	0	2	96	48	7
STR	115	0	3
SI_	115	0	3	96	48	7
TAP	115	96	2
TAP	115	96	3
TAP	115	192	0
TAP	115	192	6
TAP	115	240	1
TAP	115	240	5
TAP	115	288	2
TAP	115	288	4
TAP	116	0	0
STR	116	48	1
SXL	116	48	1	96	144	1
TAP	116	48	7
TAP	116	96	2
TAP	116	96	6
TAP	116	144	5
BRK	116	240	7
BRK	116	288	7
STR	117	0	4
SI_	117	0	4	96	48	0
STR	117	0	5
SI_	117	0	5	96	48	0
TAP	117	96	4
TAP	117	96	5
TAP	117	192	1
TAP	117	192	7
TAP	117	240	2
TAP	117	240	6
TAP	117	288	3
TAP	117	288	5
TAP	118	0	7
TAP	118	48	0
TAP	118	48	6
TAP	118	96	1
TAP	118	96	5
TAP	118	144	2
STR	118	144	4
SCR	118	144	4	96	432	3
BRK	118	240	3
BRK	118	288	0

T_REC_TAP	441
T_REC_BRK	44
T_REC_XTP	37
T_REC_HLD	25
T_REC_XHO	0
T_REC_STR	176
T_REC_BST	0
T_REC_XST	2
T_REC_TTP	29
T_REC_THO	0
T_REC_SLD	178
T_REC_ALL	932
T_NUM_TAP	685
T_NUM_BRK	44
T_NUM_HLD	25
T_NUM_SLD	178
T_NUM_ALL	932
T_JUDGE_TAP	729
T_JUDGE_HLD	59
T_JUDGE_SLD	178
T_JUDGE_ALL	966
TTM_EACHPAIRS	205
TTM_SCR_TAP	342500
TTM_SCR_BRK	114400
TTM_SCR_HLD	25000
TTM_SCR_SLD	267000
TTM_SCR_ALL	748900
TTM_SCR_S	722200
TTM_SCR_SS	744500
TTM_RAT_ACV	10059

