VERSION	0.00.00	1.03.00
FES_MODE	0
BPM_DEF	195.000	195.000	195.000	195.000
MET_DEF	4	4
RESOLUTION	384
CLK_DEF	384
COMPATIBLE_CODE	MA2

BPM	0	0	195.000
MET	0	0	4	4

TAP	1	0	3
TAP	1	96	3
TAP	1	192	3
TAP	2	0	4
TAP	2	96	4
TAP	2	192	4
TAP	3	0	3
TAP	3	96	3
TAP	3	192	4
TAP	3	288	4
TAP	4	0	3
TAP	4	0	4
TAP	4	96	3
TAP	4	96	4
TAP	4	192	2
TAP	4	192	5
TTP	5	0	2	E	0	M1
TTP	5	96	3	E	0	M1
TTP	5	192	4	E	0	M1
TTP	5	288	5	E	0	M1
TTP	6	0	6	B	0	M1
TTP	6	0	6	E	0	M1
TTP	6	96	0	C	0	M1
TTP	6	192	1	B	0	M1
TTP	6	192	2	E	0	M1
TTP	7	0	6	E	0	M1
TTP	7	96	5	E	0	M1
TTP	7	192	4	E	0	M1
TTP	7	288	3	E	0	M1
TTP	8	0	1	B	0	M1
TTP	8	0	2	E	0	M1
TTP	8	96	6	B	0	M1
TTP	8	96	6	E	0	M1
TTP	8	192	3	B	0	M1
TTP	8	192	4	B	0	M1
TTP	9	0	2	E	0	M1
TTP	9	96	1	E	0	M1
TTP	9	192	0	E	0	M1
TTP	9	288	7	E	0	M1
TTP	10	0	5	B	0	M1
TTP	10	0	6	E	0	M1
TTP	10	96	2	B	0	M1
TTP	10	96	2	E	0	M1
TTP	10	192	0	C	0	M1
HLD	11	0	0	96
HLD	11	0	1	96
HLD	11	192	6	96
HLD	11	192	7	96
XTP	12	0	0
XTP	12	96	1
XTP	12	192	2
BRK	12	288	2
BRK	12	288	7
TAP	13	0	2
TAP	13	96	2
TAP	13	96	3
TAP	13	192	5
TAP	13	288	4
TAP	13	288	5
TAP	14	0	3
TAP	14	96	2
TAP	14	192	0
TAP	14	192	1
TAP	14	288	0
TAP	14	288	1
TAP	15	0	6
TAP	15	96	6
TAP	15	96	7
TAP	15	192	1
TAP	15	288	0
TAP	15	288	1
TAP	16	0	2
STR	16	0	7
SI_	16	0	7	96	96	3
TAP	17	0	2
TAP	17	96	2
TAP	17	192	4
TAP	17	288	3
TAP	17	288	5
TAP	18	0	6
TAP	18	96	6
TAP	18	192	0
TAP	18	288	1
TAP	18	288	7
TAP	19	0	2
TAP	19	96	1
TAP	19	96	3
TAP	19	192	4
TAP	19	288	3
TAP	19	288	5
TAP	20	0	2
TAP	20	0	4
TAP	20	96	2
TAP	20	96	4
XTP	20	192	1
XTP	20	192	5
TAP	21	0	4
TAP	21	96	4
TAP	21	192	3
TAP	21	192	5
TAP	21	240	3
TAP	21	240	5
TAP	21	288	3
TAP	21	288	5
TAP	22	0	2
TAP	22	0	4
TAP	22	48	2
TAP	22	48	4
TAP	22	96	2
TAP	22	96	4
TAP	22	144	2
TAP	22	144	4
XTP	22	240	1
XTP	22	240	5
XTP	22	288	1
XTP	22	288	5
TAP	23	0	0
TAP	23	96	0
TAP	23	192	1
TAP	23	192	7
TAP	23	240	1
TAP	23	240	7
TAP	23	288	1
TAP	23	288	7
TAP	24	0	0
TAP	24	0	6
TAP	24	48	0
TAP	24	48	6
TAP	24	96	0
TAP	24	96	6
TAP	24	144	0
TAP	24	144	6
XTP	24	240	1
XTP	24	240	5
XTP	24	288	1
XTP	24	288	5
XTP	25	0	2
HLD	25	96	2	480
TAP	25	192	3
TAP	25	288	3
TAP	26	0	4
TAP	26	96	4
TAP	26	192	3
TAP	26	288	4
TAP	27	0	5
HLD	27	96	5	480
TAP	27	192	4
TAP	27	288	4
TAP	28	0	3
TAP	28	96	3
TAP	28	192	4
TAP	28	288	3
TAP	28	288	6
TAP	29	0	2
HLD	29	96	2	480
TAP	29	192	3
TAP	29	288	3
TAP	30	0	4
TAP	30	96	3
TAP	30	192	3
TAP	30	288	3
TAP	30	288	4
TAP	31	0	5
HLD	31	96	5	384
TAP	31	192	4
TAP	31	288	4
TAP	32	0	3
TAP	32	96	4
XTP	32	192	3
XTP	32	192	6
TAP	33	0	2
HLD	33	96	1	288
TAP	33	192	3
TAP	33	288	3
TAP	34	0	2
TAP	34	96	3
TAP	34	192	3
TAP	34	192	4
TAP	34	288	3
TAP	34	288	4
TAP	35	0	5
HLD	35	96	6	288
TAP	35	192	4
TAP	35	288	4
TAP	36	0	5
TAP	36	96	4
TAP	36	192	3
TAP	36	192	4
TAP	36	288	2
TAP	36	288	5
TAP	37	0	1
HLD	37	96	1	384
TAP	37	192	0
TAP	37	288	0
TAP	38	0	7
TAP	38	96	0
TAP	38	192	0
TAP	38	192	1
TAP	38	288	0
TAP	38	288	7
TAP	39	0	6
HLD	39	96	6	288
TAP	39	192	7
TAP	39	288	7
TAP	40	0	5
TAP	40	96	4
BRK	40	192	3
BRK	40	192	6
STR	41	0	1
SCR	41	0	1	96	144	4
STR	42	0	5
SI_	42	0	5	96	144	2
STR	43	0	1
SUR	43	0	1	96	144	5
TAP	44	0	6
TAP	44	96	5
TAP	44	192	4
TAP	44	192	5
STR	45	0	3
SCL	45	0	3	96	144	0
STR	46	0	7
SI_	46	0	7	96	144	3
STR	47	0	2
SCL	47	0	2	96	144	7
TAP	48	0	6
TAP	48	96	5
TAP	48	192	4
HLD	48	288	3	288
HLD	48	288	4	288
BRK	50	0	0
BRK	50	0	1
TAP	50	96	2
TAP	50	96	7
TAP	50	192	6
TAP	50	192	7
TAP	50	288	0
TAP	50	288	5
TAP	51	0	4
TAP	51	0	5
TAP	51	96	3
TAP	51	96	6
TAP	51	192	2
TAP	51	192	3
TAP	51	288	1
TAP	51	288	4
TAP	52	0	4
TAP	52	0	5
STR	52	96	6
SI_	52	96	6	96	96	2
STR	52	96	7
SI_	52	96	7	96	96	3
XTP	53	0	1
XTP	53	0	4
XTP	53	96	3
XTP	53	96	6
XTP	53	192	2
XTP	53	192	4
BRK	53	288	0
BRK	53	288	6
HLD	54	0	1	96
TAP	54	96	3
TAP	54	192	4
TAP	54	240	4
TAP	54	288	3
HLD	55	0	6	96
TAP	55	96	4
TAP	55	192	3
TAP	55	240	3
TAP	55	288	4
STR	56	0	3
SCL	56	0	3	96	96	0
TAP	56	0	5
STR	56	192	7
SCL	56	192	7	96	96	4
TAP	57	0	3
TAP	57	96	3
TAP	57	192	2
TAP	57	192	4
BRK	57	288	0
BRK	57	288	6
TAP	58	0	4
TAP	58	0	5
TAP	58	96	3
TAP	58	96	6
TAP	58	192	2
TAP	58	192	3
TAP	58	288	1
TAP	58	288	4
TAP	59	0	0
TAP	59	0	1
TAP	59	96	2
TAP	59	96	7
TAP	59	192	6
TAP	59	192	7
TAP	59	288	0
TAP	59	288	5
HLD	60	0	2	96
HLD	60	96	3	96
HLD	60	192	4	96
STR	60	288	5
SCR	60	288	5	96	192	2
TAP	62	0	2
TAP	62	96	1
TAP	62	96	3
TAP	62	192	5
TAP	62	288	4
TAP	62	288	6
TAP	63	0	1
TAP	63	96	0
TAP	63	96	2
BRK	63	192	3
BRK	63	192	7
HLD	64	0	4	96
HLD	64	0	6	96
HLD	64	192	1	96
HLD	64	192	3	96
HLD	65	0	2	96
HLD	65	0	7	96
BRK	65	192	0
BRK	65	288	0
TAP	66	0	7
TAP	66	96	7
TAP	66	192	0
TAP	66	192	6
TAP	66	240	0
TAP	66	240	6
TAP	66	288	0
TAP	66	288	6
TAP	67	0	1
TAP	67	0	7
TAP	67	48	1
TAP	67	48	7
TAP	67	96	1
TAP	67	96	7
TAP	67	144	1
TAP	67	144	7
XTP	67	240	2
XTP	67	240	6
XTP	67	288	2
XTP	67	288	6
TAP	68	0	3
TAP	68	96	3
TAP	68	192	2
TAP	68	192	4
TAP	68	240	2
TAP	68	240	4
TAP	68	288	2
TAP	68	288	4
TAP	69	0	3
TAP	69	0	5
TAP	69	48	3
TAP	69	48	5
TAP	69	96	3
TAP	69	96	5
TAP	69	144	3
TAP	69	144	5
XTP	69	240	2
XTP	69	240	6
XTP	69	288	2
XTP	69	288	6
TTP	70	0	1	E	0	M1
TTP	70	96	0	C	0	M1
TTP	70	192	5	E	0	M1
TTP	70	288	6	E	0	M1
TTP	71	0	7	E	0	M1
TTP	71	96	0	C	0	M1
TTP	71	192	2	E	0	M1
TTP	71	192	3	E	0	M1
TTP	72	0	1	E	0	M1
TTP	72	96	0	C	0	M1
TTP	72	192	5	E	0	M1
TTP	72	288	4	E	0	M1
TTP	73	0	3	E	0	M1
TTP	73	96	0	C	0	M1
XTP	73	192	1
XTP	73	192	7
TAP	74	0	7
TAP	74	96	0
TAP	74	96	6
TAP	74	192	5
TAP	74	240	5
TAP	74	288	4
TAP	75	0	3
TAP	75	96	2
TAP	75	96	4
TAP	75	192	1
TAP	75	240	1
TAP	75	288	0
TAP	76	0	1
TAP	76	0	7
TAP	76	96	2
TAP	76	192	3
TAP	76	192	5
TAP	76	288	6
XTP	77	0	0
XTP	77	96	1
XTP	77	192	2
BRK	77	288	0
BST	77	288	7
SI_	77	288	7	96	192	3
HLD	79	0	2	384
HLD	80	0	3	384
HLD	81	0	4	384
TTP	82	0	6	B	0	M1
TTP	82	0	6	E	0	M1
TTP	82	96	3	B	0	M1
TTP	82	96	4	B	0	M1
TTP	82	192	1	B	0	M1
TTP	82	192	2	E	0	M1
STR	83	0	0
SCR	83	0	0	96	288	3
STR	84	0	7
SCL	84	0	7	96	288	4
HLD	85	0	3	192
TAP	86	0	4
TAP	86	96	3
TAP	86	192	2
TAP	86	288	2
TAP	86	288	3
BRK	87	0	1
BRK	87	0	7
TAP	87	96	4
TAP	87	96	5
TAP	87	192	0
TAP	87	192	6
TAP	87	288	2
TAP	87	288	3
TAP	88	0	4
TAP	88	0	5
TAP	88	96	6
TAP	88	96	7
TAP	88	192	0
TAP	88	192	1
TAP	88	288	2
TAP	88	288	3
TAP	89	0	1
TAP	89	0	7
TAP	89	96	4
TAP	89	96	5
TAP	89	192	0
TAP	89	192	6
STR	89	288	2
SCL	89	288	2	96	192	7
STR	89	288	3
SUL	89	288	3	96	192	6
HLD	91	0	5	96
HLD	91	96	4	96
HLD	91	192	3	96
TAP	91	288	2
HLD	92	0	1	96
HLD	92	96	3	96
XHO	92	192	4	96
TAP	92	288	5
STR	93	0	6
SI_	93	0	6	96	96	3
STR	93	192	1
SI_	93	192	1	96	96	4
HLD	94	0	7	192
BRK	94	192	0
BRK	94	288	0
XTP	95	0	1
XTP	95	0	7
TAP	95	96	2
TAP	95	96	6
XTP	95	192	1
XTP	95	192	7
TAP	95	288	2
TAP	95	288	6
XTP	96	0	1
XTP	96	0	7
TAP	96	96	2
TAP	96	96	6
XTP	96	192	1
XTP	96	192	7
XTP	96	288	1
XTP	96	288	7
XTP	97	0	0
XTP	97	0	6
TAP	97	96	1
TAP	97	96	5
XTP	97	192	0
XTP	97	192	6
TAP	97	288	1
TAP	97	288	5
XTP	98	0	0
XTP	98	0	6
TAP	98	96	1
TAP	98	96	5
BRK	98	192	6
BRK	98	192	7
XTP	99	0	0
XTP	99	0	1
TAP	99	96	2
TAP	99	96	7
XTP	99	192	0
XTP	99	192	1
TAP	99	288	2
TAP	99	288	7
XTP	100	0	0
XTP	100	0	1
TAP	100	96	2
TAP	100	96	7
BRK	100	192	0
BRK	100	192	5
XTP	101	0	6
XTP	101	0	7
TAP	101	96	0
TAP	101	96	5
XTP	101	192	6
XTP	101	192	7
TAP	101	288	0
TAP	101	288	5
XTP	102	0	6
XTP	102	0	7
TAP	102	96	0
TAP	102	96	5
BRK	102	192	2
BRK	102	192	7
XTP	103	0	0
XTP	103	0	6
TAP	103	96	2
TAP	103	96	3
XTP	103	192	1
XTP	103	192	7
TAP	103	288	4
TAP	103	288	5
XTP	104	0	0
XTP	104	0	6
TAP	104	96	2
TAP	104	96	3
XTP	104	192	1
XTP	104	192	7
XTP	104	288	1
XTP	104	288	7
XTP	105	0	0
XTP	105	0	6
TAP	105	96	2
TAP	105	96	3
XTP	105	192	1
XTP	105	192	7
TAP	105	288	4
TAP	105	288	5
BRK	106	0	2
BRK	106	0	3
BRK	106	96	6
BRK	106	96	7
BRK	106	192	4
BRK	106	192	5
BRK	106	288	0
BRK	106	288	1
XTP	107	0	2
XTP	107	0	7
TAP	107	96	4
TAP	107	96	5
XTP	107	192	0
XTP	107	192	5
TAP	107	288	2
TAP	107	288	3
XTP	108	0	2
XTP	108	0	7
TAP	108	96	4
TAP	108	96	5
BRK	108	192	0
BRK	108	192	5
XTP	109	0	3
TAP	109	48	3
TAP	109	96	4
TAP	109	144	4
XTP	109	192	2
TAP	109	240	2
TAP	109	288	5
TAP	109	336	5
XTP	110	0	1
TAP	110	48	1
XTP	110	96	7
TAP	110	144	7
XTP	110	192	0
XTP	110	192	7
BRK	110	288	1
BRK	110	288	6
TAP	111	0	2
TAP	111	96	2
TAP	111	192	3
TAP	111	192	6
TAP	111	240	3
TAP	111	240	6
TAP	111	288	3
TAP	111	288	6
TAP	112	0	1
TAP	112	0	4
TAP	112	48	1
TAP	112	48	4
TAP	112	96	1
TAP	112	96	4
TAP	112	144	1
TAP	112	144	4
BRK	112	240	6
BRK	112	240	7
BRK	112	288	6
BRK	112	288	7
TAP	113	0	0
TAP	113	96	0
TAP	113	192	2
TAP	113	192	7
TAP	113	240	2
TAP	113	240	7
TAP	113	288	2
TAP	113	288	7
TAP	114	0	0
TAP	114	0	5
TAP	114	48	0
TAP	114	48	5
TAP	114	96	0
TAP	114	96	5
TAP	114	144	0
TAP	114	144	5
BRK	114	240	3
BRK	114	240	7
BRK	114	288	3
BRK	114	288	7
STR	115	0	0
SI_	115	0	0	96	48	4
STR	115	0	1
SI_	115	0	1	96	48	3
STR	115	192	6
SI_	115	192	6	96	48	4
STR	115	192	7
SI_	115	192	7	96	48	3
TAP	116	0	0
TAP	116	0	1
TAP	116	96	2
TAP	116	96	3
TAP	116	144	2
TAP	116	144	3
BRK	116	240	1
BRK	116	240	5
BRK	116	288	1
BRK	116	288	5
STR	117	0	6
SI_	117	0	6	96	48	3
STR	117	0	7
SI_	117	0	7	96	48	3
STR	117	192	0
SI_	117	192	0	96	48	4
STR	117	192	1
SI_	117	192	1	96	48	4
TAP	118	0	6
TAP	118	0	7
TAP	118	96	0
TAP	118	96	5
HLD	118	144	0	144
STR	118	144	5
SCR	118	144	5	96	720	4

T_REC_TAP	374
T_REC_BRK	49
T_REC_XTP	89
T_REC_HLD	36
T_REC_XHO	1
T_REC_STR	27
T_REC_BST	1
T_REC_XST	0
T_REC_TTP	48
T_REC_THO	0
T_REC_SLD	28
T_REC_ALL	653
T_NUM_TAP	538
T_NUM_BRK	50
T_NUM_HLD	37
T_NUM_SLD	28
T_NUM_ALL	653
T_JUDGE_TAP	588
T_JUDGE_HLD	153
T_JUDGE_SLD	28
T_JUDGE_ALL	769
TTM_EACHPAIRS	203
TTM_SCR_TAP	269000
TTM_SCR_BRK	130000
TTM_SCR_HLD	37000
TTM_SCR_SLD	42000
TTM_SCR_ALL	478000
TTM_SCR_S	458850
TTM_SCR_SS	473000
TTM_RAT_ACV	10105

