VERSION	0.00.00	1.03.00
FES_MODE	0
BPM_DEF	195.000	195.000	195.000	195.000
MET_DEF	4	4
RESOLUTION	384
CLK_DEF	384
COMPATIBLE_CODE	MA2

BPM	0	0	195.000
MET	0	0	4	4

HLD	5	0	2	192
HLD	5	192	3	192
HLD	6	0	4	192
TAP	6	192	5
HLD	7	0	6	192
HLD	7	192	7	192
HLD	8	0	0	192
TAP	8	192	1
HLD	9	0	2	192
TAP	9	192	3
HLD	10	0	5	192
TAP	10	192	4
HLD	11	0	6	192
TAP	11	192	7
XTP	12	0	0
XTP	12	96	1
XTP	12	192	2
XTP	12	288	3
TAP	13	0	5
TAP	13	96	5
TAP	13	192	4
TAP	13	288	4
TAP	14	0	3
TAP	14	96	3
TAP	14	192	2
TAP	14	192	4
TAP	15	0	1
TAP	15	96	1
TAP	15	192	0
TAP	15	288	0
TAP	16	0	7
TAP	16	96	7
TAP	16	192	0
TAP	16	192	7
TAP	17	0	6
TAP	17	96	6
TAP	17	192	7
TAP	17	288	7
TAP	18	0	0
TAP	18	96	0
TAP	18	192	1
TAP	18	192	7
TAP	19	0	2
TAP	19	96	2
TAP	19	192	3
TAP	19	288	3
TAP	20	0	3
TAP	20	0	4
TAP	20	96	3
TAP	20	96	4
BRK	20	192	2
BRK	20	192	5
TTP	21	0	6	B	0	L1
TTP	21	0	7	E	0	L1
TTP	21	192	4	B	0	L1
TTP	21	192	5	E	0	L1
TTP	22	0	3	E	0	L1
TTP	22	96	2	B	0	L1
TTP	22	192	1	B	0	L1
TTP	23	0	6	B	0	L1
TTP	23	0	7	E	0	L1
TTP	23	192	4	B	0	L1
TTP	23	192	5	E	0	L1
TTP	24	0	3	E	0	L1
TTP	24	96	2	B	0	L1
TTP	24	192	1	B	0	L1
XHO	25	0	6	192
TAP	25	192	7
HLD	26	0	1	192
TAP	26	192	0
HLD	27	0	6	192
TAP	27	192	7
HLD	28	0	0	96
HLD	28	0	1	96
TAP	28	192	0
TAP	28	192	1
HLD	29	0	2	192
TAP	29	192	3
HLD	30	0	5	192
TAP	30	192	4
HLD	31	0	2	192
TAP	31	192	3
HLD	32	0	4	96
HLD	32	0	5	96
TAP	32	192	3
TAP	32	192	6
TAP	33	0	2
TAP	33	96	2
TAP	33	192	3
TAP	34	0	5
TAP	34	96	5
TAP	34	192	4
TAP	35	0	2
TAP	35	96	2
TAP	35	192	3
TAP	36	0	4
TAP	36	96	4
TAP	36	192	3
TAP	36	192	5
TAP	37	0	6
TAP	37	96	6
TAP	37	192	7
TAP	38	0	1
TAP	38	96	1
TAP	38	192	0
TAP	39	0	6
TAP	39	96	6
TAP	39	192	7
TAP	40	0	0
TAP	40	0	7
TAP	40	96	0
TAP	40	96	7
BRK	40	192	1
BRK	40	192	6
TTP	41	0	5	B	0	L1
TTP	41	192	4	B	0	L1
TTP	42	0	3	B	0	L1
TTP	42	192	2	B	0	L1
TTP	43	0	1	B	0	L1
TTP	43	192	0	B	0	L1
TTP	44	0	7	B	0	L1
TTP	44	192	6	B	0	L1
XTP	45	0	1
TAP	45	96	1
TAP	45	192	0
TAP	46	0	6
TAP	46	96	6
TAP	46	192	7
TAP	47	0	1
TAP	47	96	0
TAP	47	192	7
TAP	47	288	6
TAP	48	0	5
TAP	48	96	4
TAP	48	192	3
STR	48	288	3
SCL	48	288	3	96	192	0
STR	48	288	4
SCR	48	288	4	96	192	7
BRK	50	0	1
TAP	50	96	1
TAP	50	192	0
TAP	50	192	1
TAP	50	288	0
TAP	50	288	1
TAP	51	0	6
TAP	51	96	6
TAP	51	192	6
TAP	51	192	7
TAP	51	288	6
TAP	51	288	7
TAP	52	0	5
TAP	52	96	5
TAP	52	192	4
TAP	52	288	4
XTP	53	0	3
XTP	53	0	4
XTP	53	96	3
XTP	53	96	4
XTP	53	192	2
XTP	53	192	5
HLD	54	0	1	96
TAP	54	96	0
TAP	54	192	0
TAP	54	192	1
HLD	55	0	6	96
TAP	55	96	7
TAP	55	192	6
TAP	55	192	7
TAP	56	0	0
TAP	56	96	0
TAP	56	192	7
TAP	56	288	7
TAP	57	0	0
TAP	57	0	7
TAP	57	96	0
TAP	57	96	7
TAP	57	192	1
TAP	57	192	6
BRK	57	288	1
BRK	57	288	6
TAP	58	0	2
TAP	58	96	2
TAP	58	192	2
TAP	58	192	3
TAP	58	288	2
TAP	58	288	3
TAP	59	0	5
TAP	59	96	5
TAP	59	192	4
TAP	59	192	5
TAP	59	288	4
TAP	59	288	5
TAP	60	0	6
TAP	60	96	6
TAP	60	192	7
TAP	60	288	7
STR	61	0	0
SI_	61	0	0	96	192	3
STR	61	0	7
SI_	61	0	7	96	192	4
TAP	62	0	2
TAP	62	96	2
TAP	62	192	3
TAP	62	288	3
TAP	63	0	4
TAP	63	96	4
TAP	63	192	5
TAP	63	288	5
HLD	64	0	6	96
HLD	64	0	7	96
HLD	64	192	0	96
HLD	64	192	1	96
TAP	65	0	6
TAP	65	0	7
TAP	65	96	6
TAP	65	96	7
BRK	65	192	0
BRK	65	192	5
TTP	66	0	1	B	0	L1
TTP	66	0	1	E	0	L1
TTP	66	192	3	B	0	L1
TTP	66	192	3	E	0	L1
TTP	67	0	5	E	0	L1
TTP	67	96	5	B	0	L1
TTP	67	192	6	B	0	L1
TTP	68	0	1	B	0	L1
TTP	68	0	1	E	0	L1
TTP	68	192	3	B	0	L1
TTP	68	192	3	E	0	L1
TTP	69	0	5	E	0	L1
TTP	69	96	5	B	0	L1
TTP	69	192	6	B	0	L1
XHO	70	0	1	192
HLD	70	192	0	192
HLD	71	0	7	192
TAP	71	192	6
HLD	72	0	5	192
HLD	72	192	4	192
HLD	73	0	3	192
TAP	73	192	2
HLD	74	0	1	192
TAP	74	192	0
HLD	75	0	6	192
TAP	75	192	7
TAP	76	0	5
TAP	76	96	5
TAP	76	192	6
TAP	76	288	6
XTP	77	0	0
XTP	77	0	7
XTP	77	96	1
XTP	77	96	6
XTP	77	192	2
XTP	77	192	5
XTP	77	288	3
XTP	77	288	4
TTP	78	0	0	C	1	L1
XST	79	0	0
SCR	79	0	0	96	480	5
STR	81	0	7
SCL	81	0	7	96	480	2
STR	83	0	1
SI_	83	0	1	96	192	4
STR	84	0	5
SI_	84	0	5	96	192	0
STR	85	0	1
SI_	85	0	1	96	192	4
TAP	86	0	5
TAP	86	96	5
TAP	86	192	3
TAP	86	192	4
BRK	87	0	5
TAP	87	96	5
TAP	87	192	4
TAP	87	192	5
TAP	87	288	4
TAP	87	288	5
TAP	88	0	2
TAP	88	96	2
TAP	88	192	2
TAP	88	192	3
TAP	88	288	2
TAP	88	288	3
TAP	89	0	1
TAP	89	96	1
TAP	89	192	0
TAP	89	288	0
STR	90	0	0
SCR	90	0	0	96	192	3
STR	90	0	7
SCL	90	0	7	96	192	4
TAP	91	0	5
TAP	91	96	5
TAP	91	192	4
TAP	91	288	4
TAP	92	0	3
TAP	92	96	3
TAP	92	192	2
TAP	92	288	2
HLD	93	0	0	96
HLD	93	0	1	96
HLD	93	192	6	96
HLD	93	192	7	96
TAP	94	0	0
TAP	94	0	7
TAP	94	96	0
TAP	94	96	7
BRK	94	192	1
BRK	94	192	6
TTP	95	0	5	B	0	L1
TTP	95	192	6	B	0	L1
TTP	96	0	7	E	0	L1
TTP	96	192	0	B	0	L1
TTP	96	192	7	B	0	L1
TTP	97	0	1	B	0	L1
TTP	97	192	2	B	0	L1
TTP	98	0	3	E	0	L1
TTP	98	192	3	B	0	L1
TTP	98	192	4	B	0	L1
TTP	99	0	5	B	0	L1
TTP	99	192	6	B	0	L1
TTP	100	0	7	E	0	L1
TTP	100	192	0	B	0	L1
TTP	100	192	7	B	0	L1
TTP	101	0	1	B	0	L1
TTP	101	192	2	B	0	L1
TTP	102	0	3	E	0	L1
TTP	102	192	3	B	0	L1
TTP	102	192	4	B	0	L1
XTP	103	0	6
TAP	103	96	6
TAP	103	192	6
TAP	103	192	7
TAP	104	0	1
TAP	104	96	1
TAP	104	192	0
TAP	104	192	1
TAP	105	0	6
TAP	105	96	6
TAP	105	192	6
TAP	105	192	7
TAP	106	0	0
TAP	106	96	0
TAP	106	192	1
TAP	106	192	7
TAP	107	0	2
TAP	107	96	2
TAP	107	192	2
TAP	107	192	3
TAP	108	0	5
TAP	108	96	5
TAP	108	192	4
TAP	108	192	5
TAP	109	0	2
TAP	109	96	1
TAP	109	192	0
TAP	109	288	7
TAP	110	0	6
TAP	110	96	5
XTP	110	192	3
XTP	110	192	4
HLD	111	0	2	96
HLD	111	0	3	96
HLD	111	192	4	96
HLD	111	192	5	96
TAP	112	0	6
TAP	112	0	7
TAP	112	96	6
TAP	112	96	7
TAP	112	192	6
TAP	112	192	7
HLD	113	0	0	96
HLD	113	0	1	96
HLD	113	192	6	96
HLD	113	192	7	96
TAP	114	0	4
TAP	114	0	5
TAP	114	96	4
TAP	114	96	5
TAP	114	192	4
TAP	114	192	5
HLD	115	0	6	96
HLD	115	0	7	96
HLD	115	192	0	96
HLD	115	192	1	96
TAP	116	0	2
TAP	116	0	3
TAP	116	96	2
TAP	116	96	3
TAP	116	192	2
TAP	116	192	3
HLD	117	0	4	96
HLD	117	0	5	96
HLD	117	192	2	96
HLD	117	192	3	96
TAP	118	0	1
TAP	118	96	0
STR	118	192	0
SXL	118	192	0	96	576	3
STR	118	192	7
SXR	118	192	7	96	576	4

T_REC_TAP	232
T_REC_BRK	12
T_REC_XTP	22
T_REC_HLD	51
T_REC_XHO	2
T_REC_STR	12
T_REC_BST	0
T_REC_XST	1
T_REC_TTP	57
T_REC_THO	0
T_REC_SLD	13
T_REC_ALL	402
T_NUM_TAP	324
T_NUM_BRK	12
T_NUM_HLD	53
T_NUM_SLD	13
T_NUM_ALL	402
T_JUDGE_TAP	336
T_JUDGE_HLD	152
T_JUDGE_SLD	13
T_JUDGE_ALL	501
TTM_EACHPAIRS	78
TTM_SCR_TAP	162000
TTM_SCR_BRK	31200
TTM_SCR_HLD	53000
TTM_SCR_SLD	19500
TTM_SCR_ALL	265700
TTM_SCR_S	256600
TTM_SCR_SS	264500
TTM_RAT_ACV	10045

