VERSION	0.00.00	1.03.00
FES_MODE	0
BPM_DEF	195.000	195.000	195.000	195.000
MET_DEF	4	4
RESOLUTION	384
CLK_DEF	384
COMPATIBLE_CODE	MA2

BPM	0	0	195.000
MET	0	0	4	4

TAP	5	0	7
TAP	6	0	7
TAP	7	0	0
TAP	8	0	0
TAP	9	0	7
TAP	9	192	7
TAP	10	0	7
TAP	11	0	0
TAP	11	192	0
BRK	12	0	0
TAP	13	0	1
TAP	13	192	1
TAP	14	0	1
TAP	15	0	2
TAP	15	192	2
TAP	16	0	2
TAP	17	0	3
TAP	17	192	3
TAP	18	0	3
TAP	19	0	4
TAP	19	192	4
TAP	20	0	3
TAP	20	0	4
TAP	21	0	5
TAP	21	192	5
TAP	22	0	5
TAP	23	0	6
TAP	23	192	6
XTP	24	0	0
XTP	24	0	7
TAP	25	0	7
TAP	26	0	6
TAP	27	0	5
TAP	28	0	3
TAP	28	0	4
TAP	29	0	3
TAP	30	0	2
TAP	31	0	1
XTP	32	0	0
XTP	32	0	7
TAP	33	0	0
TAP	33	192	0
TAP	34	0	1
TAP	35	0	1
TAP	35	192	1
TAP	36	0	2
TAP	36	0	3
TAP	37	0	4
TAP	37	192	4
TAP	38	0	5
TAP	39	0	5
TAP	39	192	5
TAP	40	0	6
TAP	40	0	7
STR	41	0	0
SI_	41	0	0	96	288	3
STR	43	0	7
SI_	43	0	7	96	288	4
STR	45	0	0
SI_	45	0	0	96	288	4
STR	47	0	7
SI_	47	0	7	96	288	3
XTP	49	0	0
TAP	50	0	7
TAP	50	192	7
TAP	51	0	6
TAP	51	192	6
TAP	52	0	5
TAP	52	192	5
XTP	53	0	3
XTP	53	0	4
TAP	54	0	3
TAP	54	192	3
TAP	55	0	2
TAP	55	192	2
TAP	56	0	1
TAP	56	192	1
XTP	57	0	0
XTP	57	0	7
TAP	58	0	0
TAP	58	192	0
TAP	59	0	1
TAP	59	192	1
TAP	60	0	2
TAP	60	192	2
XTP	61	0	3
XTP	61	0	4
TAP	62	0	4
TAP	62	192	4
TAP	63	0	5
TAP	63	192	5
TAP	64	0	6
TAP	64	192	6
BRK	65	0	0
BRK	65	0	7
TAP	66	0	1
TAP	66	192	1
TAP	67	0	0
TAP	67	0	1
TAP	68	0	6
TAP	68	192	6
TAP	69	0	6
TAP	69	0	7
HLD	70	0	4	384
HLD	70	0	5	384
HLD	72	0	2	384
HLD	72	0	3	384
HLD	74	0	0	384
HLD	74	0	1	384
HLD	76	0	0	384
HLD	76	0	7	384
XTP	78	0	0
XTP	78	0	7
TTP	79	0	0	B	0	L1
TTP	80	0	7	B	0	L1
TTP	81	0	1	B	0	L1
TTP	82	0	6	B	0	L1
TTP	83	0	2	B	0	L1
TTP	84	0	5	B	0	L1
TTP	85	0	3	B	0	L1
TTP	86	0	0	C	1	L1
XTP	87	0	0
TAP	87	192	0
TAP	88	0	1
TAP	88	192	1
TAP	89	0	2
TAP	89	192	2
XTP	90	0	3
XTP	90	0	4
TAP	90	192	3
TAP	90	192	4
TAP	91	0	4
TAP	91	192	4
TAP	92	0	5
TAP	92	192	5
TAP	93	0	6
TAP	93	192	6
TAP	94	0	0
TAP	94	0	7
XTP	94	192	0
XTP	94	192	7
TAP	95	0	7
TAP	95	96	7
TAP	95	192	7
TAP	96	0	6
TAP	96	192	6
TAP	97	0	5
TAP	97	96	5
TAP	97	192	5
TAP	98	0	3
TAP	98	0	4
BRK	98	192	3
BRK	98	192	4
TAP	99	0	3
TAP	99	96	3
TAP	99	192	3
TAP	100	0	2
TAP	100	192	2
TAP	101	0	1
TAP	101	96	1
TAP	101	192	1
TAP	102	0	0
TAP	102	0	7
TAP	102	192	0
TAP	102	192	7
TAP	103	0	0
TAP	103	96	0
TAP	103	192	0
TAP	104	0	1
TAP	104	192	1
TAP	105	0	2
TAP	105	96	2
TAP	105	192	2
XTP	106	0	3
XTP	106	0	4
BRK	106	192	3
BRK	106	192	4
TAP	107	0	4
TAP	107	96	4
TAP	107	192	4
TAP	108	0	5
TAP	108	192	5
TAP	109	0	6
TAP	109	96	6
TAP	109	192	6
TAP	110	0	7
TAP	110	96	7
XTP	110	192	0
XTP	110	192	7
TAP	111	0	0
TAP	111	96	0
TAP	111	192	0
TAP	112	0	1
TAP	112	192	0
TAP	112	192	1
TAP	113	0	7
TAP	113	96	7
TAP	113	192	7
TAP	114	0	6
TAP	114	192	6
TAP	114	192	7
TAP	115	0	5
TAP	115	96	5
TAP	115	192	5
TAP	116	0	3
TAP	116	0	4
TAP	116	192	3
TAP	116	192	4
TAP	117	0	2
TAP	117	96	2
TAP	117	192	2
TAP	118	0	3
TAP	118	0	4
XTP	118	192	2
XTP	118	192	5

T_REC_TAP	160
T_REC_BRK	7
T_REC_XTP	24
T_REC_HLD	8
T_REC_XHO	0
T_REC_STR	4
T_REC_BST	0
T_REC_XST	0
T_REC_TTP	8
T_REC_THO	0
T_REC_SLD	4
T_REC_ALL	215
T_NUM_TAP	196
T_NUM_BRK	7
T_NUM_HLD	8
T_NUM_SLD	4
T_NUM_ALL	215
T_JUDGE_TAP	203
T_JUDGE_HLD	64
T_JUDGE_SLD	4
T_JUDGE_ALL	271
TTM_EACHPAIRS	34
TTM_SCR_TAP	98000
TTM_SCR_BRK	18200
TTM_SCR_HLD	8000
TTM_SCR_SLD	6000
TTM_SCR_ALL	130200
TTM_SCR_S	125650
TTM_SCR_SS	129500
TTM_RAT_ACV	10054

