VERSION	0.00.00	1.03.00
FES_MODE	0
BPM_DEF	184.000	184.000	184.000	131.000
MET_DEF	4	4
RESOLUTION	384
CLK_DEF	384
COMPATIBLE_CODE	MA2

BPM	0	0	184.000
BPM	89	288	158.000
BPM	90	96	154.000
BPM	90	192	146.000
BPM	90	288	131.000
BPM	91	0	181.000
BPM	106	288	184.000
MET	0	0	4	4

STR	1	0	7
SCL	1	0	7	96	48	4
TAP	1	96	3
STR	1	144	2
SCL	1	144	2	96	48	7
TAP	1	240	3
STR	1	288	4
SI_	1	288	4	96	48	7
TAP	2	0	3
TAP	2	48	2
STR	2	96	1
SI_	2	96	1	96	48	5
STR	2	192	5
SI_	2	192	5	96	48	1
TAP	2	288	7
STR	3	0	0
SCR	3	0	0	96	48	3
TAP	3	96	4
STR	3	144	5
SCR	3	144	5	96	48	0
TAP	3	240	4
STR	3	288	3
SI_	3	288	3	96	48	0
TAP	4	0	4
TAP	4	48	5
STR	4	96	6
SI_	4	96	6	96	48	2
STR	4	192	2
SI_	4	192	2	96	48	6
TAP	4	288	0
STR	5	0	7
SCL	5	0	7	96	48	4
TAP	5	96	3
STR	5	144	2
SCL	5	144	2	96	48	7
TAP	5	240	3
STR	5	288	4
SI_	5	288	4	96	48	7
TAP	6	0	3
TAP	6	48	2
STR	6	96	1
SI_	6	96	1	96	48	5
HLD	6	192	7	96
TAP	6	288	0
TAP	6	312	7
TAP	6	336	0
TAP	6	360	7
XTP	7	0	1
XTP	7	0	6
BRK	7	48	1
BRK	7	48	6
TAP	8	144	2
TAP	8	144	4
TAP	8	240	3
TAP	8	288	4
TAP	9	0	3
TAP	9	0	5
HLD	9	96	6	96
HLD	9	192	5	96
TAP	9	288	4
STR	9	336	4
SI_	9	336	4	96	48	7
STR	10	48	0
SI_	10	48	0	96	48	3
TAP	10	144	4
TAP	10	240	6
TAP	10	288	4
TAP	10	288	6
TAP	11	0	1
HLD	11	0	3	96
TAP	11	96	4
HLD	11	144	4	96
STR	11	240	6
SXL	11	240	6	96	240	3
HLD	11	336	2	144
TAP	12	192	2
TAP	12	240	2
TAP	12	288	1
TAP	12	288	3
TAP	13	0	4
TAP	13	0	6
TAP	13	96	0
TAP	13	96	7
STR	13	144	0
SV_	13	144	0	96	48	5
TAP	13	144	7
STR	13	240	6
SCR	13	240	6	96	192	4
HLD	13	336	1	144
TAP	14	192	2
STR	14	288	1
SCL	14	288	1	96	192	3
TAP	14	288	3
HLD	15	0	6	240
TAP	15	240	7
TAP	15	288	0
TAP	15	288	6
XTP	15	336	1
XTP	15	336	5
TTP	16	48	3	B	0	M1
TTP	16	48	4	E	0	M1
TTP	16	144	0	E	0	M1
TTP	16	144	7	B	0	M1
TAP	16	240	5
TAP	16	264	4
XTP	16	288	6
TAP	17	0	2
TAP	17	0	4
HLD	17	96	1	96
HLD	17	192	2	96
TAP	17	288	3
STR	17	336	3
SI_	17	336	3	96	48	0
STR	18	48	7
SI_	18	48	7	96	48	4
TAP	18	144	3
TAP	18	240	1
TAP	18	288	3
HLD	18	336	2	96
TAP	19	48	6
TAP	19	96	4
HLD	19	144	5	96
STR	19	240	1
SXR	19	240	1	96	240	4
TAP	19	288	3
HLD	19	336	3	144
TAP	20	192	5
TAP	20	240	5
TAP	20	288	4
TAP	20	288	6
TAP	21	0	1
TAP	21	0	3
TAP	21	96	0
TAP	21	96	7
TAP	21	144	0
STR	21	144	7
SV_	21	144	7	96	48	2
STR	21	240	1
SCL	21	240	1	96	192	3
HLD	21	336	6	144
TAP	22	192	5
STR	22	288	3
SCL	22	288	3	96	48	0
STR	22	288	4
SCR	22	288	4	96	48	7
XTP	23	0	3
XTP	23	0	4
TAP	23	96	1
TAP	23	96	6
TAP	23	144	1
STR	23	144	6
SI_	23	144	6	96	48	1
STR	23	240	2
SI_	23	240	2	96	48	5
XTP	23	240	6
XTP	23	336	2
STR	23	336	7
SI_	23	336	7	96	48	4
STR	24	48	3
SI_	24	48	3	96	48	0
XTP	24	48	7
XTP	24	144	3
STR	24	144	5
SUL	24	144	5	96	144	3
BRK	24	240	1
XTP	24	240	5
HLD	25	0	1	192
HLD	25	192	3	336
TTP	25	336	5	B	0	M1
TTP	25	336	5	E	0	M1
TTP	26	48	7	B	0	M1
TTP	26	48	7	E	0	M1
TTP	26	144	1	B	0	M1
TTP	26	144	1	E	0	M1
XTP	26	192	3
TAP	26	288	2
TAP	26	288	4
HLD	27	0	6	192
HLD	27	192	4	336
TTP	27	336	3	B	0	M1
TTP	27	336	3	E	0	M1
TTP	28	48	1	B	0	M1
TTP	28	48	1	E	0	M1
TTP	28	144	7	B	0	M1
TTP	28	144	7	E	0	M1
XTP	28	192	4
TAP	28	288	3
TAP	28	288	5
HLD	29	0	1	192
HLD	29	192	3	144
HLD	29	336	2	432
TTP	30	96	4	E	0	M1
TTP	30	192	0	C	0	M1
TTP	30	288	0	E	0	M1
HLD	31	0	7	192
HLD	31	192	0	432
TTP	31	336	7	B	0	M1
TTP	31	336	7	E	0	M1
TTP	32	48	1	B	0	M1
TTP	32	48	1	E	0	M1
TTP	32	144	5	B	0	M1
TTP	32	144	5	E	0	M1
TTP	32	240	3	B	0	M1
TTP	32	240	3	E	0	M1
HLD	33	0	1	192
HLD	33	192	3	336
TTP	33	336	4	B	0	M1
TTP	33	336	5	E	0	M1
TTP	34	48	6	B	0	M1
TTP	34	48	7	E	0	M1
TTP	34	144	0	B	0	M1
TTP	34	144	1	E	0	M1
XTP	34	192	3
TAP	34	288	2
TAP	34	288	4
HLD	35	0	6	192
HLD	35	192	4	240
TTP	35	336	3	B	0	M1
TTP	35	336	3	E	0	M1
TTP	36	48	7	B	0	M1
TTP	36	48	7	E	0	M1
TTP	36	144	1	E	0	M1
TTP	36	144	5	E	0	M1
TAP	36	240	2
TAP	36	240	6
XTP	36	288	2
XTP	36	288	6
TAP	37	0	1
TAP	37	48	3
TAP	37	96	2
TAP	37	192	2
TAP	37	240	3
TAP	37	288	1
TAP	37	288	4
TAP	38	0	6
TAP	38	48	4
TAP	38	96	5
TAP	38	192	5
TAP	38	240	4
TAP	38	288	3
TAP	38	288	6
XTP	39	0	1
XTP	39	0	4
TAP	39	48	6
TAP	39	72	7
HLD	39	96	6	192
TAP	39	144	5
TAP	39	192	4
TAP	39	240	3
TAP	39	288	2
STR	39	336	1
SI_	39	336	1	96	48	4
STR	39	336	5
SI_	39	336	5	96	48	0
BRK	40	48	1
BRK	40	48	5
TTP	40	144	0	C	1	M1
TTP	40	144	3	E	0	M1
TTP	40	144	7	E	0	M1
BST	41	0	0
SI_	41	0	0	96	48	4
TAP	41	48	0
STR	41	96	6
SI_	41	96	6	96	48	0
TAP	41	144	6
STR	41	192	2
SI_	41	192	2	96	48	4
TAP	41	240	2
STR	41	288	6
SI_	41	288	6	96	48	2
TAP	41	336	6
XST	42	0	2
SI_	42	0	2	96	48	6
XST	42	96	0
SI_	42	96	0	96	48	4
XTP	42	192	0
BRK	42	192	7
HLD	42	288	1	96
TAP	42	288	5
STR	43	0	3
SI_	43	0	3	96	48	7
TAP	43	48	3
STR	43	96	1
SI_	43	96	1	96	48	3
TAP	43	144	1
STR	43	192	5
SI_	43	192	5	96	48	7
TAP	43	240	5
STR	43	288	1
SI_	43	288	1	96	48	5
TAP	43	336	1
STR	44	0	5
SI_	44	0	5	96	48	1
TAP	44	96	0
TAP	44	144	7
BST	44	192	2
SXL	44	192	2	96	120	2
BST	44	192	6
SXL	44	192	6	96	120	6
TAP	45	96	1
TAP	45	96	5
TAP	45	144	1
STR	45	144	5
SCL	45	144	5	96	96	2
STR	45	240	2
SCL	45	240	2	96	96	7
STR	45	336	7
SCL	45	336	7	96	96	4
TAP	46	96	3
STR	46	144	3
SF_	46	144	3	96	48	7
TAP	46	336	1
TAP	46	336	5
TAP	47	0	1
TAP	47	0	5
TAP	47	96	2
TAP	47	96	6
TAP	47	144	2
STR	47	144	6
SI_	47	144	6	96	48	3
STR	47	240	1
SUR	47	240	1	96	168	4
TAP	47	336	4
TAP	48	48	7
TAP	48	96	7
TAP	48	144	5
TAP	48	168	4
TAP	48	192	5
BRK	48	240	2
BRK	48	240	7
XTP	48	336	0
STR	48	336	5
SLR	48	336	5	96	96	3
TAP	49	48	0
STR	49	96	1
SI_	49	96	1	96	48	5
TAP	49	144	1
STR	49	192	7
SI_	49	192	7	96	48	1
TAP	49	240	7
STR	49	288	3
SI_	49	288	3	96	48	5
TAP	49	336	3
STR	50	0	7
SI_	50	0	7	96	48	3
TAP	50	48	7
STR	50	96	1
SI_	50	96	1	96	48	5
TAP	50	144	1
BRK	50	192	0
TAP	50	288	3
TAP	50	288	7
STR	50	336	3
SLL	50	336	3	96	96	5
XTP	50	336	7
XTP	51	48	7
STR	51	96	6
SI_	51	96	6	96	48	0
TAP	51	144	6
STR	51	192	2
SI_	51	192	2	96	48	4
TAP	51	240	2
STR	51	288	6
SI_	51	288	6	96	48	2
TAP	51	336	6
STR	52	0	1
SI_	52	0	1	96	48	4
TAP	52	48	1
STR	52	96	5
SI_	52	96	5	96	48	0
TAP	52	144	5
BRK	52	192	1
XHO	52	288	2	96
TAP	52	288	6
STR	53	0	3
SI_	53	0	3	96	48	7
TAP	53	48	3
STR	53	96	1
SI_	53	96	1	96	48	3
TAP	53	144	1
STR	53	192	5
SI_	53	192	5	96	48	7
TAP	53	240	5
STR	53	288	1
SI_	53	288	1	96	48	5
TAP	53	336	1
TAP	54	0	5
TAP	54	48	6
STR	54	96	0
SI_	54	96	0	96	48	4
STR	54	96	7
SI_	54	96	7	96	48	3
TAP	54	144	1
TAP	54	144	6
BRK	54	192	0
BRK	54	192	7
TAP	54	288	0
TAP	54	312	7
TAP	54	336	0
TAP	54	360	7
TTP	55	0	0	C	1	M1
TTP	55	0	2	B	0	M1
TTP	55	0	2	E	0	M1
TTP	55	0	5	B	0	M1
TTP	55	0	6	E	0	M1
STR	56	204	7
SI_	56	204	7	96	48	3
STR	56	300	2
SCL	56	300	2	96	864	5
THO	57	12	0	864	C	0	M1
STR	61	0	6
SUL	61	0	6	96	576	4
TTP	62	0	0	C	0	M1
STR	63	0	3
SUL	63	0	3	96	576	1
TTP	64	0	0	C	0	M1
TAP	65	0	0
TAP	65	192	1
TAP	66	0	2
HLD	66	192	3	96
TTP	67	0	2	E	0	M1
TTP	67	48	4	E	0	M1
TTP	67	96	3	E	0	M1
TTP	67	144	5	E	0	M1
TTP	67	288	6	E	0	M1
TTP	67	336	4	E	0	M1
TTP	68	0	5	E	0	M1
TTP	68	48	3	E	0	M1
TTP	68	192	0	E	0	M1
TTP	68	288	0	C	0	M1
TAP	69	0	7
TAP	69	192	6
TAP	70	0	5
HLD	70	192	4	96
TTP	71	0	7	E	0	M1
TTP	71	48	5	E	0	M1
TTP	71	96	6	E	0	M1
TTP	71	144	4	E	0	M1
TTP	71	288	1	E	0	M1
TTP	71	336	3	E	0	M1
TTP	72	0	2	E	0	M1
TTP	72	48	4	E	0	M1
TTP	72	192	0	C	0	M1
TTP	72	288	0	E	0	M1
HLD	73	0	5	192
HLD	73	192	4	192
HLD	74	0	3	192
HLD	74	192	2	192
HLD	75	0	4	384
TAP	75	96	3
TAP	75	192	2
TAP	75	288	1
HLD	76	0	0	384
TAP	76	96	7
TAP	76	192	6
TAP	76	288	5
HLD	77	0	4	1152
TTP	77	96	5	E	0	M1
TTP	77	288	5	E	0	M1
TTP	78	96	5	B	0	M1
TTP	78	288	5	B	0	M1
TTP	79	96	6	B	0	M1
TTP	79	288	6	B	0	M1
STR	80	0	7
SCR	80	0	7	96	48	2
TAP	80	96	5
STR	80	192	0
SCL	80	192	0	96	48	5
TAP	80	288	2
TAP	81	0	2
TAP	81	48	3
TAP	81	96	2
TAP	81	96	3
TAP	81	192	2
TAP	81	240	4
TAP	81	288	2
TAP	81	288	4
TAP	82	0	2
TAP	82	48	5
TAP	82	96	2
TAP	82	96	5
TAP	82	192	2
STR	82	192	6
SI_	82	192	6	96	48	2
XTP	82	288	1
TAP	83	0	5
TAP	83	48	4
TAP	83	96	4
TAP	83	96	5
TAP	83	192	5
TAP	83	240	3
TAP	83	288	3
TAP	83	288	5
TAP	84	0	5
TAP	84	48	2
STR	84	96	2
SCR	84	96	2	96	48	5
TAP	84	96	5
STR	84	192	5
SCL	84	192	5	96	48	2
XTP	84	288	6
XTP	85	0	0
XTP	85	0	7
TAP	85	48	1
TAP	85	72	3
TAP	85	96	2
TAP	85	144	6
TAP	85	168	4
TAP	85	192	5
TAP	85	240	1
TAP	85	264	3
TAP	85	288	2
TAP	85	336	6
TAP	85	360	4
TAP	86	0	5
TAP	86	48	2
TAP	86	72	3
TAP	86	96	2
TAP	86	144	5
TAP	86	168	4
TAP	86	192	5
TAP	86	240	3
TAP	86	264	4
STR	86	288	3
SI_	86	288	3	96	48	7
TAP	86	312	4
TAP	86	336	3
TAP	86	360	4
TTP	87	0	0	C	1	M1
TAP	88	336	0
TAP	88	336	7
TAP	88	360	1
TAP	88	360	6
XTP	89	0	2
XTP	89	0	5
XTP	89	48	2
XTP	89	48	5
XTP	89	144	2
TAP	89	144	3
XTP	89	192	1
TAP	89	192	4
TAP	89	288	4
XTP	89	288	5
TAP	89	336	3
XTP	89	336	6
XTP	90	48	0
XTP	90	48	7
BST	90	96	0
SI_	90	96	0	96	48	3
BST	90	96	7
SI_	90	96	7	96	48	4
BST	90	192	0
SCL	90	192	0	96	48	5
BST	90	192	7
SCR	90	192	7	96	48	2
BST	90	288	0
SI_	90	288	0	96	48	4
BST	90	288	7
SI_	90	288	7	96	48	3
BRK	91	0	0
BRK	91	0	7
TAP	91	96	1
TAP	91	96	6
STR	91	192	5
SCL	91	192	5	96	48	2
HLD	91	288	1	96
STR	92	0	0
SCL	92	0	0	96	48	5
HLD	92	96	2	96
STR	92	192	3
SXL	92	192	3	96	240	7
TAP	92	288	1
HLD	92	336	1	240
TAP	93	192	0
TAP	93	240	1
TAP	93	288	2
STR	93	288	7
SCL	93	288	7	96	96	4
STR	94	0	4
SCL	94	0	4	96	96	1
STR	94	96	1
SCL	94	96	1	96	96	6
STR	94	192	6
SCL	94	192	6	96	96	3
TAP	94	288	3
TAP	95	0	1
TAP	95	48	2
STR	95	96	1
SI_	95	96	1	96	48	3
STR	95	96	3
SI_	95	96	3	96	48	7
TAP	95	192	1
TAP	95	192	3
TAP	95	288	6
TAP	95	336	5
STR	96	0	4
SI_	96	0	4	96	48	0
STR	96	0	6
SI_	96	0	6	96	48	4
TAP	96	96	4
TAP	96	96	6
TAP	96	192	1
TAP	96	192	3
TAP	96	240	2
TAP	96	288	4
TAP	96	288	6
TAP	96	336	5
STR	97	0	3
SUR	97	0	3	96	192	4
TAP	97	0	4
TAP	97	96	7
HLD	97	144	7	144
STR	98	0	3
SI_	98	0	3	96	48	0
STR	98	0	7
SI_	98	0	7	96	48	4
XTP	98	96	3
XTP	98	96	7
XTP	98	192	1
XTP	98	192	5
TAP	98	216	2
TAP	98	240	3
TAP	98	264	4
XTP	98	288	5
TAP	98	312	6
TAP	98	336	7
TAP	98	360	0
BST	99	0	1
SCL	99	0	1	96	48	6
BRK	99	0	5
HLD	99	96	5	96
STR	99	192	4
SCL	99	192	4	96	48	1
HLD	99	288	6	96
STR	100	0	7
SI_	100	0	7	96	48	3
HLD	100	96	5	96
STR	100	192	4
SXR	100	192	4	96	240	0
TAP	100	288	6
HLD	100	336	6	240
TAP	101	192	7
TAP	101	240	6
STR	101	288	0
SI_	101	288	0	96	48	4
TAP	101	288	5
BRK	102	0	0
STR	102	0	6
SI_	102	0	6	96	48	1
STR	102	96	2
SI_	102	96	2	96	48	5
BRK	102	96	6
BRK	102	192	2
STR	102	192	7
SI_	102	192	7	96	48	3
BRK	102	288	0
BRK	102	288	7
HLD	103	0	1	96
STR	103	96	0
SCL	103	96	0	96	48	5
HLD	103	144	0	144
XTP	103	288	4
TAP	103	336	2
TAP	103	336	6
TAP	104	0	2
HLD	104	0	6	96
STR	104	96	7
SCR	104	96	7	96	48	2
HLD	104	144	7	144
XTP	104	288	3
XTP	104	312	4
XTP	104	336	5
XTP	104	360	6
BRK	105	0	0
BRK	105	0	7
BRK	106	288	3
BRK	106	288	4
TTP	107	0	0	C	1	M1
TTP	107	0	1	B	0	M1
TTP	107	0	2	E	0	M1
TTP	107	0	2	B	0	M1
TTP	107	0	5	B	0	M1
TTP	107	0	6	B	0	M1
TTP	107	0	6	E	0	M1

T_REC_TAP	256
T_REC_BRK	24
T_REC_XTP	47
T_REC_HLD	50
T_REC_XHO	1
T_REC_STR	99
T_REC_BST	10
T_REC_XST	2
T_REC_TTP	83
T_REC_THO	1
T_REC_SLD	111
T_REC_ALL	684
T_NUM_TAP	487
T_NUM_BRK	34
T_NUM_HLD	52
T_NUM_SLD	111
T_NUM_ALL	684
T_JUDGE_TAP	521
T_JUDGE_HLD	225
T_JUDGE_SLD	111
T_JUDGE_ALL	857
TTM_EACHPAIRS	97
TTM_SCR_TAP	243500
TTM_SCR_BRK	88400
TTM_SCR_HLD	52000
TTM_SCR_SLD	166500
TTM_SCR_ALL	550400
TTM_SCR_S	530600
TTM_SCR_SS	547000
TTM_RAT_ACV	10062

