VERSION	0.00.00	1.03.00
FES_MODE	0
BPM_DEF	184.000	184.000	184.000	131.000
MET_DEF	4	4
RESOLUTION	384
CLK_DEF	384
COMPATIBLE_CODE	MA2

BPM	0	0	184.000
BPM	89	288	158.000
BPM	90	96	154.000
BPM	90	192	146.000
BPM	90	288	131.000
BPM	91	0	181.000
BPM	106	288	184.000
MET	0	0	4	4

TAP	1	0	5
TAP	1	96	4
TAP	1	96	6
TAP	1	192	2
TAP	1	288	1
TAP	1	288	3
TAP	2	0	7
TAP	2	96	7
TAP	2	192	0
TAP	2	192	6
TAP	2	288	1
TAP	2	288	5
TAP	3	0	2
TAP	3	96	1
TAP	3	96	3
TAP	3	192	5
TAP	3	288	4
TAP	3	288	6
TAP	4	0	0
TAP	4	96	0
TAP	4	192	1
TAP	4	192	7
TAP	4	288	2
TAP	4	288	6
TAP	5	0	5
TAP	5	96	4
TAP	5	96	6
TAP	5	192	2
TAP	5	288	1
TAP	5	288	3
TAP	6	0	7
TAP	6	96	0
TAP	6	96	7
TAP	6	192	1
TAP	6	192	6
TAP	6	288	3
TAP	6	288	4
XTP	7	0	2
XTP	7	0	5
HLD	7	48	2	384
HLD	7	48	5	384
XTP	8	144	3
XTP	8	144	4
TAP	8	240	3
TAP	8	288	4
HLD	9	0	2	96
TAP	9	0	5
TAP	9	96	5
STR	9	192	4
SUL	9	192	4	96	288	2
TAP	9	192	6
TAP	10	288	1
TAP	10	288	4
HLD	11	0	2	96
TAP	11	96	3
HLD	11	192	5	96
TAP	11	288	4
TAP	12	0	1
TAP	12	96	0
TAP	12	192	7
TAP	12	288	3
TAP	12	288	6
HLD	13	0	5	96
TAP	13	96	4
HLD	13	192	2	96
TAP	13	288	3
TAP	14	0	6
TAP	14	96	7
TAP	14	192	0
TAP	14	288	1
STR	14	288	4
SCR	14	288	4	96	96	7
TAP	15	192	0
TAP	15	240	0
TAP	15	288	7
STR	15	336	7
SI_	15	336	7	96	96	3
TAP	16	240	2
TAP	16	240	4
TAP	16	288	2
TAP	16	288	4
TAP	17	0	3
HLD	17	0	5	96
TAP	17	96	2
TAP	17	192	1
STR	17	192	3
SUR	17	192	3	96	288	5
TAP	18	288	3
TAP	18	288	6
TAP	19	0	7
TAP	19	96	1
TAP	19	96	4
TAP	19	192	0
TAP	19	288	2
TAP	19	288	5
TAP	20	0	6
TAP	20	96	7
TAP	20	192	0
TAP	20	288	1
TAP	20	288	4
HLD	21	0	2	96
TAP	21	96	3
HLD	21	192	5	96
TAP	21	288	4
TAP	22	0	1
TAP	22	96	0
TAP	22	192	7
STR	22	288	3
SCL	22	288	3	96	96	0
TAP	22	288	6
STR	23	96	7
SCL	23	96	7	96	96	4
TAP	23	288	0
TAP	23	336	0
XTP	24	48	1
XTP	24	48	7
XTP	24	144	2
XTP	24	144	6
BRK	24	240	3
BRK	24	240	5
BRK	24	288	3
BRK	24	288	5
STR	25	0	2
SCR	25	0	2	96	96	5
HLD	25	192	7	192
TAP	26	0	4
TAP	26	192	3
STR	27	0	5
SCL	27	0	5	96	96	2
HLD	27	192	0	192
TAP	28	0	3
TAP	28	192	4
STR	29	0	2
SCR	29	0	2	96	96	5
HLD	29	192	7	192
TAP	30	0	4
TAP	30	192	3
STR	31	0	5
SCR	31	0	5	96	96	0
STR	31	192	1
SCR	31	192	1	96	96	4
STR	32	0	7
SI_	32	0	7	96	96	4
TAP	32	192	3
TAP	32	288	3
TAP	32	288	4
STR	33	0	5
SCL	33	0	5	96	96	2
HLD	33	192	0	192
TAP	34	0	3
TAP	34	96	3
TAP	34	192	4
TAP	34	288	4
STR	35	0	1
SI_	35	0	1	96	96	4
TAP	35	192	5
STR	35	288	5
SCR	35	288	5	96	192	2
TTP	36	0	0	C	1	M1
TAP	37	0	2
TAP	37	96	1
TAP	37	96	3
TAP	37	192	5
TAP	37	288	4
TAP	37	288	6
TAP	38	0	2
TAP	38	96	1
TAP	38	96	3
HLD	38	192	5	96
HLD	38	288	7	96
HLD	39	0	0	96
HLD	39	96	2	96
TAP	39	192	5
TAP	39	288	0
TAP	39	288	7
TAP	39	336	0
TAP	39	336	7
TAP	40	48	3
TAP	40	48	4
BRK	40	144	1
BRK	40	144	6
TAP	41	0	5
TAP	41	48	5
TAP	41	96	4
TAP	41	192	3
TAP	41	192	6
TAP	41	288	2
TAP	41	336	2
TAP	42	0	3
TAP	42	96	1
TAP	42	96	4
TAP	42	192	0
HLD	42	192	5	96
TAP	42	288	1
TAP	43	0	2
TAP	43	48	2
TAP	43	96	3
TAP	43	192	1
TAP	43	192	4
TAP	43	288	5
TAP	43	336	5
TAP	44	0	4
TAP	44	96	3
TAP	44	96	5
STR	44	192	2
SCL	44	192	2	96	96	7
STR	44	192	6
SCL	44	192	6	96	96	3
XTP	45	96	0
XTP	45	96	4
XTP	45	144	0
XTP	45	144	4
TAP	45	240	2
TAP	45	240	6
TAP	45	336	7
HLD	46	0	7	96
XTP	46	96	0
XTP	46	144	0
TAP	46	240	1
TAP	46	240	6
TAP	46	336	5
HLD	47	0	5	96
TAP	47	96	4
STR	47	144	4
SXL	47	144	4	96	240	1
XTP	48	192	0
XTP	48	192	7
XTP	48	240	0
XTP	48	240	7
HLD	48	336	2	96
TAP	49	48	3
TAP	49	96	3
TAP	49	192	1
TAP	49	192	4
TAP	49	288	5
TAP	49	336	5
TAP	50	0	4
TAP	50	96	6
TAP	50	96	7
TAP	50	192	1
TAP	50	192	4
TAP	50	288	5
HLD	50	336	5	96
TAP	51	48	4
TAP	51	96	4
TAP	51	192	3
TAP	51	192	6
TAP	51	288	2
TAP	51	336	2
TAP	52	0	3
TAP	52	96	0
TAP	52	96	1
TAP	52	192	3
TAP	52	192	6
BRK	52	288	7
TAP	53	0	2
TAP	53	48	2
TAP	53	96	3
TAP	53	192	1
TAP	53	192	4
TAP	53	288	5
TAP	53	336	5
TAP	54	0	4
TAP	54	96	3
TAP	54	96	5
TAP	54	192	2
STR	54	192	6
SI_	54	192	6	96	96	2
HLD	55	0	0	672
STR	56	288	7
SCL	56	288	7	96	768	0
HLD	61	0	2	1152
HLD	63	0	5	768
TTP	65	0	4	E	0	M1
TTP	65	192	5	E	0	M1
TTP	66	0	6	E	0	M1
TTP	66	192	7	E	0	M1
STR	67	0	7
SI_	67	0	7	96	288	4
TTP	69	0	4	E	0	M1
TTP	69	192	3	E	0	M1
TTP	70	0	2	E	0	M1
TTP	70	192	1	E	0	M1
STR	71	0	0
SI_	71	0	0	96	288	3
HLD	73	0	4	384
HLD	74	0	3	384
HLD	75	0	2	384
HLD	76	0	1	384
HLD	77	0	0	384
HLD	78	0	7	384
STR	79	0	6
SI_	79	0	6	96	96	2
BRK	80	0	0
BRK	80	0	7
BRK	80	96	4
BRK	80	96	6
BRK	80	192	3
BRK	80	192	4
BRK	80	288	1
BRK	80	288	3
TAP	81	0	2
TAP	81	96	2
TAP	81	192	2
TAP	81	288	2
TAP	82	0	2
TAP	82	0	3
TAP	82	96	2
TAP	82	96	4
TAP	82	192	2
TAP	82	192	5
TAP	82	288	2
TAP	82	288	6
TAP	83	0	6
TAP	83	96	6
TAP	83	192	6
TAP	83	288	6
TAP	84	0	4
TAP	84	0	6
TAP	84	96	3
TAP	84	96	6
TAP	84	192	2
TAP	84	192	6
TAP	84	288	1
TAP	84	288	6
TAP	85	0	0
TAP	85	96	0
TAP	85	192	0
TAP	85	288	0
TAP	86	0	0
TAP	86	0	3
TAP	86	96	0
TAP	86	96	4
TAP	86	192	0
TAP	86	192	5
TAP	86	288	0
TAP	86	288	6
HLD	87	0	7	384
TTP	88	0	0	C	1	M1
TAP	88	288	3
TAP	88	288	4
TAP	89	0	5
TAP	89	48	4
TAP	89	48	5
TAP	89	144	2
TAP	89	192	2
TAP	89	192	3
TAP	89	288	6
TAP	89	336	4
TAP	89	336	6
XTP	90	48	1
XST	90	96	1
SCR	90	96	1	96	96	5
XTP	91	0	4
XHO	91	0	6	96
TAP	91	96	2
HLD	91	192	1	96
TAP	91	192	3
TAP	91	288	5
HLD	92	0	7	96
TAP	92	96	4
STR	92	192	3
SCR	92	192	3	96	288	2
TAP	93	288	2
TAP	93	288	3
HLD	94	0	4	96
HLD	94	96	5	96
HLD	94	192	6	96
TAP	94	288	7
STR	95	0	6
SI_	95	0	6	96	96	3
STR	95	0	7
SI_	95	0	7	96	96	2
STR	95	288	0
SI_	95	288	0	96	96	5
STR	95	288	1
SI_	95	288	1	96	96	4
TAP	96	192	3
TAP	96	192	6
TAP	96	288	2
TAP	96	288	5
STR	97	0	1
SUR	97	0	1	96	96	5
TAP	97	0	4
HLD	97	288	7	96
TAP	98	0	0
TAP	98	96	3
TAP	98	144	3
HLD	98	192	4	96
TAP	98	288	2
HLD	99	0	1	96
TAP	99	0	3
TAP	99	96	5
TAP	99	192	4
HLD	99	192	6	96
TAP	99	288	2
HLD	100	0	0	96
TAP	100	96	3
STR	100	192	4
SCL	100	192	4	96	288	5
TAP	101	288	4
TAP	101	288	5
XTP	102	0	6
XTP	102	0	7
XTP	102	96	0
XTP	102	96	1
XTP	102	192	2
XTP	102	192	3
XTP	102	288	4
XTP	102	288	5
TAP	103	0	3
TAP	103	0	6
STR	103	96	3
SCL	103	96	3	96	96	0
TAP	103	96	6
TAP	104	0	1
TAP	104	0	4
TAP	104	96	1
STR	104	96	4
SCR	104	96	4	96	96	7
HLD	105	0	0	384
TAP	106	288	2
TAP	106	288	4
BRK	107	0	7

T_REC_TAP	259
T_REC_BRK	16
T_REC_XTP	28
T_REC_HLD	44
T_REC_XHO	1
T_REC_STR	32
T_REC_BST	0
T_REC_XST	1
T_REC_TTP	10
T_REC_THO	0
T_REC_SLD	33
T_REC_ALL	424
T_NUM_TAP	330
T_NUM_BRK	16
T_NUM_HLD	45
T_NUM_SLD	33
T_NUM_ALL	424
T_JUDGE_TAP	346
T_JUDGE_HLD	206
T_JUDGE_SLD	33
T_JUDGE_ALL	585
TTM_EACHPAIRS	103
TTM_SCR_TAP	165000
TTM_SCR_BRK	41600
TTM_SCR_HLD	45000
TTM_SCR_SLD	49500
TTM_SCR_ALL	301100
TTM_SCR_S	290550
TTM_SCR_SS	299500
TTM_RAT_ACV	10053

