VERSION	0.00.00	1.03.00
FES_MODE	0
BPM_DEF	184.000	184.000	184.000	131.000
MET_DEF	4	4
RESOLUTION	384
CLK_DEF	384
COMPATIBLE_CODE	MA2

BPM	0	0	184.000
BPM	89	288	158.000
BPM	90	96	154.000
BPM	90	192	146.000
BPM	90	288	131.000
BPM	91	0	181.000
BPM	106	288	184.000
MET	0	0	4	4

XTP	1	0	2
TAP	1	96	2
TAP	1	192	2
TAP	1	192	3
TAP	2	0	5
TAP	2	96	5
TAP	2	192	4
TAP	2	192	5
TAP	3	0	2
TAP	3	96	2
TAP	3	192	2
TAP	3	192	3
TAP	4	0	4
TAP	4	96	4
TAP	4	192	3
TAP	4	192	5
TAP	5	0	6
TAP	5	96	6
TAP	5	192	6
TAP	5	192	7
TAP	6	0	1
TAP	6	96	1
TAP	6	192	0
TAP	6	192	1
BST	7	0	0
SXL	7	0	0	96	480	3
BST	7	0	7
SXR	7	0	7	96	480	4
HLD	9	0	2	192
TAP	9	192	3
HLD	10	0	5	192
TAP	10	192	4
HLD	11	0	2	192
TAP	11	192	3
HLD	12	0	4	96
HLD	12	0	5	96
TAP	12	192	4
TAP	12	192	5
HLD	13	0	6	192
TAP	13	192	7
HLD	14	0	1	192
TAP	14	192	0
HLD	15	0	6	192
TAP	15	192	7
STR	16	0	0
SI_	16	0	0	96	192	4
TAP	16	0	7
TAP	17	0	5
TAP	17	96	5
TAP	17	192	4
TAP	18	0	2
TAP	18	96	2
TAP	18	192	3
TAP	19	0	5
TAP	19	96	5
TAP	19	192	4
TAP	20	0	3
TAP	20	96	3
TAP	20	192	2
TAP	20	192	4
TAP	21	0	1
TAP	21	96	1
TAP	21	192	0
TAP	22	0	6
TAP	22	96	6
TAP	22	192	7
TAP	23	0	1
TAP	23	96	1
TAP	23	192	1
XTP	23	336	0
XTP	23	336	7
XTP	24	48	0
XTP	24	48	7
XTP	24	144	0
XTP	24	144	7
STR	25	0	6
SXR	25	0	6	96	480	3
STR	27	0	2
SXR	27	0	2	96	480	7
STR	29	0	6
SCL	29	0	6	96	192	3
STR	30	0	2
SCL	30	0	2	96	192	7
TAP	31	0	6
TAP	31	192	6
TAP	31	192	7
STR	32	0	0
SCR	32	0	0	96	192	3
STR	32	0	7
SCL	32	0	7	96	192	4
HLD	33	0	5	192
TAP	33	192	4
STR	34	0	5
SI_	34	0	5	96	192	0
HLD	35	0	1	192
TAP	35	192	0
STR	36	0	1
SI_	36	0	1	96	192	4
TAP	37	0	5
TAP	37	96	5
TAP	37	192	4
TAP	38	0	2
TAP	38	96	2
TAP	38	192	3
TAP	39	0	5
TAP	39	96	5
TAP	39	192	4
TAP	39	288	4
XTP	40	0	3
XTP	40	0	4
XTP	40	96	3
XTP	40	96	4
XTP	40	192	2
XTP	40	192	5
BRK	41	0	6
TAP	41	96	6
TAP	41	192	6
TAP	41	192	7
TAP	41	288	6
TAP	41	288	7
TAP	42	0	5
TAP	42	96	4
TAP	42	192	3
TAP	42	192	5
TAP	43	0	2
TAP	43	96	2
TAP	43	192	2
TAP	43	192	3
TAP	43	288	2
TAP	43	288	3
TAP	44	0	1
TAP	44	96	0
TAP	44	192	1
TAP	44	192	7
HLD	45	0	6	96
TAP	45	96	7
TAP	45	192	6
TAP	45	192	7
HLD	46	0	1	96
TAP	46	96	0
TAP	46	192	0
TAP	46	192	1
TAP	47	0	7
TAP	47	96	7
TAP	47	192	0
TAP	47	288	0
TAP	48	0	0
TAP	48	0	7
TAP	48	96	0
TAP	48	96	7
TAP	48	192	1
TAP	48	192	6
TAP	49	0	5
TAP	49	96	5
TAP	49	192	4
TAP	49	192	5
TAP	49	288	4
TAP	49	288	5
TAP	50	0	6
TAP	50	96	7
TAP	50	192	0
TAP	50	192	6
TAP	51	0	1
TAP	51	96	1
TAP	51	192	0
TAP	51	192	1
TAP	51	288	0
TAP	51	288	1
TAP	52	0	2
TAP	52	96	3
TAP	52	192	2
TAP	52	192	4
TAP	53	0	5
TAP	53	96	5
TAP	53	192	6
TAP	53	288	6
TAP	54	0	7
TAP	54	96	7
TAP	54	192	0
TAP	54	288	0
BRK	55	0	1
BRK	55	0	6
STR	57	0	0
SCR	57	0	0	96	480	5
STR	59	0	7
SCL	59	0	7	96	480	2
STR	61	0	1
SSL	61	0	1	96	384	5
STR	63	0	6
SSR	63	0	6	96	384	2
TTP	65	0	1	B	0	L1
TTP	65	0	1	E	0	L1
TTP	66	0	3	B	0	L1
TTP	66	0	3	E	0	L1
THO	67	0	0	384	C	0	L1
TTP	69	0	6	B	0	L1
TTP	69	0	7	E	0	L1
TTP	70	0	4	B	0	L1
TTP	70	0	5	E	0	L1
THO	71	0	0	384	C	0	L1
XHO	73	0	1	384
HLD	74	0	0	384
HLD	75	0	7	384
TAP	76	0	6
HLD	77	0	5	384
HLD	78	0	4	384
HLD	79	0	3	384
TAP	80	0	2
TAP	80	192	1
TAP	80	192	4
TAP	81	0	5
TAP	81	96	5
TAP	81	192	4
TAP	82	0	2
TAP	82	96	2
TAP	82	192	3
TAP	83	0	5
TAP	83	96	5
TAP	83	192	4
TAP	84	0	3
TAP	84	96	3
TAP	84	192	2
TAP	84	192	4
TAP	85	0	1
TAP	85	96	1
TAP	85	192	0
TAP	86	0	6
TAP	86	96	6
TAP	86	192	7
STR	87	0	0
SCR	87	0	0	96	192	3
STR	87	0	7
SCL	87	0	7	96	192	4
TTP	89	0	3	B	0	L1
TTP	89	0	4	B	0	L1
TTP	89	192	2	B	0	L1
TTP	89	192	5	B	0	L1
THO	90	0	0	384	C	1	L1
XTP	92	0	6
XTP	92	96	6
XTP	92	192	6
XTP	92	192	7
TAP	93	0	1
TAP	93	96	1
TAP	93	192	0
TAP	93	288	0
TAP	94	0	7
TAP	94	96	7
TAP	94	192	1
TAP	94	192	6
TAP	95	0	4
TAP	95	0	5
TAP	95	96	4
TAP	95	96	5
TAP	95	288	2
TAP	95	288	3
TAP	96	0	2
TAP	96	0	3
TAP	96	192	5
TAP	96	288	5
TAP	97	0	4
TAP	97	96	4
TAP	97	192	3
TAP	97	288	3
TAP	98	0	3
TAP	98	0	4
TAP	98	96	3
TAP	98	96	4
TAP	98	192	2
TAP	98	192	5
TAP	99	0	1
TAP	99	96	1
TAP	99	192	0
TAP	99	192	1
TAP	100	0	6
TAP	100	96	6
TAP	100	192	6
TAP	100	192	7
TAP	101	0	1
TAP	101	96	1
TAP	101	192	0
TAP	101	288	0
TAP	102	0	7
TAP	102	96	7
TAP	102	192	0
TAP	102	192	6
TAP	103	0	4
TAP	103	0	5
HLD	103	96	4	96
HLD	103	96	5	96
TAP	104	0	2
TAP	104	0	3
HLD	104	96	2	96
HLD	104	96	3	96
STR	105	0	3
SXR	105	0	3	96	480	0
STR	105	0	4
SXL	105	0	4	96	480	7
TTP	107	0	0	C	1	L1

T_REC_TAP	203
T_REC_BRK	3
T_REC_XTP	17
T_REC_HLD	21
T_REC_XHO	1
T_REC_STR	17
T_REC_BST	2
T_REC_XST	0
T_REC_TTP	13
T_REC_THO	3
T_REC_SLD	19
T_REC_ALL	299
T_NUM_TAP	250
T_NUM_BRK	5
T_NUM_HLD	25
T_NUM_SLD	19
T_NUM_ALL	299
T_JUDGE_TAP	255
T_JUDGE_HLD	120
T_JUDGE_SLD	19
T_JUDGE_ALL	394
TTM_EACHPAIRS	57
TTM_SCR_TAP	125000
TTM_SCR_BRK	13000
TTM_SCR_HLD	25000
TTM_SCR_SLD	28500
TTM_SCR_ALL	191500
TTM_SCR_S	185300
TTM_SCR_SS	191000
TTM_RAT_ACV	10026

