VERSION	0.00.00	1.03.00
FES_MODE	0
BPM_DEF	184.000	184.000	184.000	131.000
MET_DEF	4	4
RESOLUTION	384
CLK_DEF	384
COMPATIBLE_CODE	MA2

BPM	0	0	184.000
BPM	89	288	158.000
BPM	90	96	154.000
BPM	90	192	146.000
BPM	90	288	131.000
BPM	91	0	181.000
BPM	106	288	184.000
MET	0	0	4	4

TAP	1	0	0
TAP	3	0	0
TAP	5	0	7
BRK	7	0	7
TAP	9	0	0
TAP	10	0	0
TAP	11	0	1
TAP	12	0	1
TAP	13	0	2
TAP	14	0	2
TAP	15	0	3
TAP	16	0	3
TAP	16	0	4
TAP	17	0	4
TAP	18	0	5
TAP	19	0	6
TAP	20	0	0
TAP	20	0	7
HLD	21	0	7	384
HLD	23	0	6	384
HLD	25	0	5	384
HLD	27	0	4	384
HLD	29	0	3	384
HLD	29	0	4	384
HLD	31	0	3	384
HLD	33	0	2	384
HLD	35	0	1	384
TAP	37	0	0
TAP	37	192	0
TAP	38	0	0
TAP	39	0	7
TAP	39	192	7
XTP	40	0	0
XTP	40	0	7
TAP	41	0	0
TAP	41	192	0
TAP	42	0	1
TAP	42	192	1
TAP	43	0	2
TAP	43	192	2
TAP	44	0	3
TAP	44	0	4
TAP	45	0	4
TAP	45	192	4
TAP	46	0	5
TAP	46	192	5
TAP	47	0	6
TAP	47	192	6
TAP	48	0	0
TAP	48	0	7
TAP	49	0	7
TAP	49	192	7
TAP	50	0	6
TAP	50	192	6
TAP	51	0	5
TAP	51	192	5
TAP	52	0	3
TAP	52	0	4
TAP	52	192	3
TAP	52	192	4
TAP	53	0	2
TAP	53	192	2
TAP	54	0	1
TAP	54	192	1
BRK	55	0	0
BRK	55	0	7
STR	57	0	0
SI_	57	0	0	96	480	3
TAP	60	0	7
STR	61	0	7
SI_	61	0	7	96	480	4
TAP	64	0	0
STR	65	0	0
SI_	65	0	0	96	480	4
TAP	68	0	7
STR	69	0	7
SI_	69	0	7	96	480	3
TAP	72	0	0
TTP	73	0	0	B	0	L1
TTP	74	0	7	B	0	L1
TTP	75	0	1	B	0	L1
TTP	76	0	6	B	0	L1
TTP	77	0	2	B	0	L1
TTP	78	0	5	B	0	L1
TAP	79	0	3
XTP	80	0	3
XTP	80	0	4
TAP	81	0	3
TAP	81	192	3
TAP	82	0	2
TAP	82	0	3
TAP	83	0	4
TAP	83	192	4
TAP	84	0	4
TAP	84	0	5
TAP	85	0	6
TAP	85	192	6
TAP	86	0	6
TAP	86	0	7
HLD	87	0	0	384
HLD	87	0	7	384
STR	89	0	0
SI_	89	0	0	96	288	3
STR	89	0	7
SI_	89	0	7	96	288	4
XTP	91	0	3
TAP	91	192	3
TAP	92	0	2
TAP	92	96	2
TAP	92	192	2
TAP	93	0	1
TAP	93	192	1
TAP	94	0	0
TAP	94	96	0
TAP	94	192	0
TAP	94	192	7
XTP	95	0	6
TAP	95	192	6
TAP	96	0	5
TAP	96	96	5
TAP	96	192	5
TAP	97	0	3
TAP	97	0	4
TAP	97	192	3
TAP	97	192	4
XTP	98	0	2
XTP	98	0	5
BRK	98	192	2
BRK	98	192	5
TAP	99	0	4
TAP	99	96	4
TAP	99	192	4
TAP	100	0	5
TAP	100	96	5
TAP	100	192	5
TAP	101	0	6
TAP	101	96	6
TAP	101	192	6
TAP	102	0	0
TAP	102	0	7
TAP	102	192	0
TAP	102	192	7
TAP	103	0	1
TAP	103	96	1
TAP	103	192	1
TAP	104	0	2
TAP	104	96	2
TAP	104	192	2
XTP	105	0	3
XTP	105	0	4
THO	106	0	0	384	C	1	L1

T_REC_TAP	106
T_REC_BRK	5
T_REC_XTP	10
T_REC_HLD	11
T_REC_XHO	0
T_REC_STR	6
T_REC_BST	0
T_REC_XST	0
T_REC_TTP	6
T_REC_THO	1
T_REC_SLD	6
T_REC_ALL	151
T_NUM_TAP	128
T_NUM_BRK	5
T_NUM_HLD	12
T_NUM_SLD	6
T_NUM_ALL	151
T_JUDGE_TAP	133
T_JUDGE_HLD	96
T_JUDGE_SLD	6
T_JUDGE_ALL	235
TTM_EACHPAIRS	23
TTM_SCR_TAP	64000
TTM_SCR_BRK	13000
TTM_SCR_HLD	12000
TTM_SCR_SLD	9000
TTM_SCR_ALL	98000
TTM_SCR_S	94600
TTM_SCR_SS	97500
TTM_RAT_ACV	10051

