VERSION	0.00.00	1.03.00
FES_MODE	0
BPM_DEF	164.000	164.000	164.000	164.000
MET_DEF	4	4
RESOLUTION	384
CLK_DEF	384
COMPATIBLE_CODE	MA2

BPM	0	0	164.000
MET	0	0	4	4

TAP	1	0	5
TAP	1	24	4
HLD	1	48	5	48
TAP	1	96	0
TAP	1	144	2
TAP	1	168	3
HLD	1	192	2	48
TAP	1	240	7
TAP	2	0	5
TAP	2	24	4
HLD	2	48	5	48
TAP	2	96	0
TAP	2	144	2
TAP	2	168	3
HLD	2	192	2	48
TAP	2	240	7
TAP	3	0	6
TAP	3	24	7
HLD	3	48	6	48
TAP	3	96	3
TAP	3	144	1
TAP	3	168	0
HLD	3	192	1	48
TAP	3	240	4
TAP	4	0	6
TAP	4	24	7
HLD	4	48	6	48
TAP	4	96	3
TAP	4	144	1
TAP	4	168	0
TAP	4	192	1
TAP	4	240	3
TAP	4	240	7
TAP	5	0	5
TAP	5	24	4
TAP	5	48	5
TAP	5	72	4
TAP	5	96	6
TAP	5	144	2
TAP	5	168	3
TAP	5	192	2
TAP	5	216	3
TAP	5	240	1
TAP	6	0	5
TAP	6	24	4
TAP	6	48	5
TAP	6	72	4
TAP	6	96	7
TAP	6	144	2
TAP	6	168	3
TAP	6	192	2
TAP	6	216	3
TAP	6	240	0
TAP	7	0	6
TAP	7	24	7
TAP	7	48	6
TAP	7	72	7
TAP	7	96	5
TAP	7	144	1
TAP	7	168	0
TAP	7	192	1
TAP	7	216	0
TAP	7	240	2
TAP	8	0	6
TAP	8	24	7
TAP	8	48	6
TAP	8	72	7
TAP	8	96	4
TAP	8	144	0
TAP	8	168	7
TAP	8	192	0
TAP	8	216	7
TAP	8	240	1
TAP	8	240	6
XST	9	0	4
SI_	9	0	4	96	48	0
XTP	9	0	6
XTP	9	192	1
XST	9	192	3
SI_	9	192	3	96	48	7
XST	10	0	4
SXL	10	0	4	96	192	0
SXR	10	0	4	96	192	0
XTP	10	0	6
XTP	11	0	2
XST	11	0	3
SCR	11	0	3	96	48	6
XST	11	192	4
SCL	11	192	4	96	48	1
XTP	11	192	5
BRK	12	0	3
BRK	12	0	6
BRK	12	72	1
BRK	12	72	4
TTP	12	144	0	B	0	M1
TTP	12	144	0	C	1	M1
TTP	12	144	0	E	0	M1
TTP	12	144	3	B	0	M1
TTP	12	144	4	B	0	M1
TTP	12	144	4	E	0	M1
TTP	12	144	7	B	0	M1
XTP	13	48	2
TAP	13	96	3
TAP	13	144	2
TAP	13	144	4
HLD	13	192	1	72
HLD	13	264	2	72
TAP	13	336	3
TAP	14	48	5
TAP	14	96	4
TAP	14	144	3
TAP	14	144	5
HLD	14	192	6	72
HLD	14	264	5	72
TAP	14	336	4
TAP	15	48	2
TAP	15	96	3
TAP	15	144	2
TAP	15	144	4
HLD	15	192	1	72
HLD	15	264	2	72
TAP	15	336	3
TAP	16	48	5
TAP	16	96	4
TAP	16	144	3
TAP	16	144	5
HLD	16	192	6	72
HLD	16	264	7	72
TAP	16	336	0
TAP	17	48	1
TAP	17	96	0
STR	17	144	1
SCR	17	144	1	96	96	4
TAP	17	144	7
TAP	17	192	6
TAP	17	264	5
TAP	17	336	7
TAP	18	48	6
TAP	18	96	7
TAP	18	144	0
STR	18	144	6
SCL	18	144	6	96	96	3
TAP	18	192	1
TAP	18	264	2
TAP	18	336	0
TAP	19	48	1
TAP	19	96	0
STR	19	144	1
SCR	19	144	1	96	96	4
TAP	19	144	7
TAP	19	192	6
TAP	19	264	5
TAP	19	336	7
TAP	20	48	6
TAP	20	96	7
TAP	20	144	0
STR	20	144	6
SCL	20	144	6	96	96	3
TAP	20	192	1
TAP	20	264	2
TAP	20	336	1
BRK	21	0	2
TAP	21	48	1
TAP	21	48	3
TAP	21	96	5
TAP	21	144	4
TAP	21	144	6
HLD	21	192	2	48
TAP	21	240	3
TAP	21	264	2
TAP	21	336	1
TAP	21	336	4
TAP	22	0	5
TAP	22	48	4
TAP	22	48	6
TAP	22	96	2
TAP	22	144	1
TAP	22	144	3
HLD	22	192	5	48
TAP	22	240	4
TAP	22	264	5
TAP	22	336	3
TAP	22	336	6
TAP	23	0	1
TAP	23	48	0
TAP	23	48	2
TAP	23	96	6
TAP	23	144	5
TAP	23	144	7
HLD	23	192	1	48
TAP	23	240	0
TAP	23	264	1
TAP	23	336	2
TAP	23	336	7
TAP	24	0	6
TAP	24	48	5
TAP	24	48	7
TAP	24	96	1
TAP	24	144	0
TAP	24	144	2
HLD	24	192	6	48
TAP	24	240	7
TAP	24	264	6
TAP	24	336	0
TAP	24	336	4
HLD	25	0	2	48
TAP	25	48	3
HLD	25	96	2	48
TAP	25	144	1
HLD	25	192	2	48
TAP	25	240	3
TAP	25	264	2
TAP	25	336	1
TAP	25	336	4
HLD	26	0	5	48
TAP	26	48	3
HLD	26	96	5	48
TAP	26	144	7
HLD	26	192	5	48
TAP	26	240	4
TAP	26	264	5
TAP	26	336	3
TAP	26	336	6
HLD	27	0	1	48
TAP	27	48	0
HLD	27	96	1	48
TAP	27	144	2
HLD	27	192	1	48
TAP	27	240	0
TAP	27	264	1
TAP	27	336	2
TAP	27	336	7
HLD	28	0	6	48
TAP	28	48	0
HLD	28	96	6	48
TAP	28	144	4
TAP	28	192	3
STR	28	192	7
SF_	28	192	7	96	48	3
BRK	28	288	7
XHO	29	0	1	144
XTP	29	0	5
TAP	29	96	3
HLD	29	144	5	144
TAP	29	240	4
TAP	29	288	3
STR	29	336	2
SCL	29	336	2	96	96	7
STR	30	48	7
SCL	30	48	7	96	96	4
STR	30	144	4
SCL	30	144	4	96	96	1
TAP	30	240	0
HLD	31	0	6	144
TAP	31	96	7
HLD	31	144	1	144
TAP	31	240	0
TAP	31	288	7
STR	31	336	6
SCL	31	336	6	96	96	3
STR	32	48	3
SCL	32	48	3	96	96	0
STR	32	144	0
SCL	32	144	0	96	96	5
TAP	32	240	4
TAP	33	0	2
TAP	33	48	3
TAP	33	96	4
STR	33	144	5
SCR	33	144	5	96	48	0
TAP	33	240	1
TAP	33	288	1
TAP	34	0	2
TAP	34	48	3
TAP	34	96	4
STR	34	144	5
SCR	34	144	5	96	72	1
TAP	34	240	2
TAP	34	288	2
TAP	35	0	2
TAP	35	48	3
TAP	35	96	4
STR	35	144	5
SCR	35	144	5	96	96	2
TAP	35	240	4
TAP	35	288	3
HLD	35	336	3	96
TAP	36	48	2
TAP	36	96	3
TAP	36	144	4
TAP	36	192	5
TAP	36	240	6
TAP	36	288	7
TAP	36	336	0
TAP	37	0	1
STR	37	0	4
SLR	37	0	4	96	96	0
STR	37	96	0
SLR	37	96	0	96	96	4
TAP	37	192	4
TAP	37	288	0
HLD	37	336	0	96
TAP	38	48	6
TAP	38	96	7
TAP	38	120	0
TAP	38	144	7
BRK	38	192	2
BRK	38	192	5
TAP	39	0	3
TAP	39	0	4
STR	39	48	1
SI_	39	48	1	96	48	4
TAP	39	72	0
TAP	39	120	0
TAP	39	144	1
TAP	39	192	5
STR	39	240	6
SI_	39	240	6	96	48	3
TAP	39	264	7
TAP	39	312	7
TAP	39	336	6
TAP	40	0	1
TAP	40	48	1
TAP	40	72	0
TAP	40	120	6
TAP	40	144	7
STR	40	192	0
SV_	40	192	0	96	48	3
STR	40	192	5
SCR	40	192	5	96	48	0
TAP	40	288	0
TAP	40	288	5
TAP	41	0	2
TAP	41	0	7
TAP	41	48	1
TAP	41	72	0
TAP	41	120	2
TAP	41	144	3
TAP	41	192	1
TAP	41	192	4
TAP	41	240	5
TAP	41	264	4
TAP	41	312	6
TAP	41	336	7
TAP	42	0	0
TAP	42	0	5
TAP	42	48	0
STR	42	48	5
SCR	42	48	5	96	48	0
XTP	42	144	1
TAP	42	144	5
XTP	42	160	2
XTP	42	176	3
XTP	42	192	4
BRK	42	288	2
BRK	42	288	6
TAP	43	0	0
TAP	43	0	7
STR	43	48	5
SI_	43	48	5	96	48	0
TAP	43	72	4
TAP	43	120	4
TAP	43	144	5
TAP	43	192	1
STR	43	240	2
SI_	43	240	2	96	48	7
TAP	43	264	3
TAP	43	312	3
TAP	43	336	2
TAP	44	0	5
TAP	44	48	5
TAP	44	72	4
TAP	44	120	2
TAP	44	144	3
STR	44	192	1
SCR	44	192	1	96	48	4
STR	44	192	4
SCR	44	192	4	96	48	7
TAP	44	288	1
STR	44	288	4
SI_	44	288	4	96	48	0
XTP	45	0	4
XTP	45	0	6
TAP	45	48	7
TAP	45	96	1
TAP	45	96	6
TAP	45	144	2
TAP	45	168	3
TAP	45	216	5
TAP	45	240	4
TAP	45	288	3
TAP	45	288	5
TAP	45	336	2
TAP	45	336	6
TAP	46	0	7
TAP	46	48	0
TAP	46	48	6
TAP	46	96	1
TAP	46	96	5
TAP	46	144	2
TAP	46	168	3
TAP	46	216	5
TAP	46	240	4
TAP	46	288	3
TAP	46	288	5
TAP	46	336	2
TAP	46	336	6
TAP	47	0	1
STR	47	0	7
SI_	47	0	7	96	48	4
SCL	47	0	7	96	48	4
STR	47	96	7
SI_	47	96	7	96	48	2
SCR	47	96	7	96	48	2
TAP	47	192	7
TAP	47	288	4
TAP	47	288	5
TAP	48	0	7
TAP	48	24	0
TAP	48	48	7
TAP	48	72	0
TAP	48	96	7
TAP	48	120	0
TAP	48	144	7
TAP	48	168	0
BRK	48	192	1
BRK	48	192	6
XTP	49	0	7
XTP	49	12	6
XTP	49	24	5
XTP	49	72	6
XTP	49	84	5
XTP	49	96	4
XTP	49	144	5
XTP	49	156	4
XTP	49	168	3
BRK	49	288	1
BRK	49	288	5
XTP	50	0	0
XTP	50	12	1
XTP	50	24	2
XTP	50	72	1
XTP	50	84	2
XTP	50	96	3
XTP	50	144	2
XTP	50	156	3
XTP	50	168	4
BRK	50	288	2
BRK	50	288	6
XTP	51	0	7
XTP	51	12	6
XTP	51	24	5
XTP	51	72	6
XTP	51	84	5
XTP	51	96	4
XTP	51	144	5
XTP	51	156	4
XTP	51	168	3
BRK	51	288	1
BRK	51	288	5
XST	52	0	0
SXL	52	0	0	96	144	4
SXR	52	0	0	96	144	4
XTP	52	0	4
BRK	52	288	2
BRK	52	288	6
BRK	53	0	7
XTP	53	12	6
XTP	53	24	5
BRK	53	72	6
XTP	53	84	5
XTP	53	96	4
BRK	53	144	5
XTP	53	156	4
XTP	53	168	3
BRK	53	288	1
BRK	53	288	5
BRK	54	0	0
XTP	54	12	1
XTP	54	24	2
BRK	54	72	1
XTP	54	84	2
XTP	54	96	3
BRK	54	144	2
XTP	54	156	3
XTP	54	168	4
BRK	54	288	0
BRK	54	288	7
BST	55	0	2
SXR	55	0	2	96	144	4
BST	55	0	5
SXL	55	0	5	96	144	3
TAP	55	288	1
TAP	55	288	6
TAP	56	0	5
TAP	56	24	4
TAP	56	72	2
TAP	56	96	3
TAP	56	144	6
TAP	56	168	4
TAP	56	216	1
TAP	56	240	3
TAP	56	288	3
TAP	56	288	4
TAP	56	336	3
TAP	56	336	4
TAP	57	0	2
BRK	57	24	1
BRK	57	24	3
TAP	57	72	5
BRK	57	96	4
BRK	57	96	6
TAP	57	144	0
TAP	57	144	7
BRK	57	168	1
BRK	57	168	6
XTP	58	0	2
XST	58	0	3
SCR	58	0	3	96	96	7
XST	58	192	4
SCL	58	192	4	96	96	0
XST	59	0	3
SF_	59	0	3	96	96	7
XTP	59	288	1
XTP	59	288	5
XHO	60	0	3	96
XHO	60	0	6	96
XHO	60	192	1	96
XHO	60	192	4	96
XST	61	0	2
SXR	61	0	2	96	192	7
XST	61	0	6
SXR	61	0	6	96	192	3
XTP	62	0	4
XST	62	0	5
SCR	62	0	5	96	48	7
XST	62	192	2
SCL	62	192	2	96	48	7
XST	63	0	5
SCR	63	0	5	96	120	2
XTP	63	288	3
XTP	63	288	4
XST	64	0	1
SLR	64	0	1	96	144	7
XST	64	0	6
SLL	64	0	6	96	144	0
TAP	64	288	1
TAP	64	288	6
HLD	65	0	1	48
HLD	65	0	3	48
HLD	65	72	4	48
HLD	65	72	6	48
TTP	65	144	0	C	0	M1
TTP	65	144	0	E	0	M1
TTP	65	144	4	E	0	M1
BRK	66	0	1
BRK	66	0	6
STR	66	48	6
SV_	66	48	6	96	48	3
TAP	66	72	7
TAP	66	120	7
TAP	66	144	6
TAP	66	192	2
STR	66	240	1
SV_	66	240	1	96	48	4
TAP	66	264	0
TAP	66	312	0
TAP	66	336	1
TAP	67	0	6
TAP	67	48	6
TAP	67	72	7
TAP	67	120	1
TAP	67	144	0
STR	67	192	2
SCL	67	192	2	96	48	7
STR	67	192	7
SUR	67	192	7	96	48	4
TAP	67	288	2
TAP	67	288	7
TAP	68	0	0
TAP	68	0	5
TAP	68	48	6
TAP	68	72	7
TAP	68	120	5
TAP	68	144	4
TAP	68	192	3
TAP	68	192	6
TAP	68	240	2
TAP	68	264	3
TAP	68	312	1
TAP	68	336	0
TAP	69	0	2
TAP	69	0	7
STR	69	48	2
SCL	69	48	2	96	48	7
TAP	69	48	7
TAP	69	144	2
XTP	69	144	6
XTP	69	160	5
XTP	69	176	4
XTP	69	192	3
BRK	69	288	1
BRK	69	288	5
TAP	70	0	0
TAP	70	0	7
STR	70	48	2
SV_	70	48	2	96	48	7
TAP	70	72	3
TAP	70	120	3
TAP	70	144	2
TAP	70	192	6
STR	70	240	5
SV_	70	240	5	96	48	0
TAP	70	264	4
TAP	70	312	4
TAP	70	336	5
TAP	71	0	2
TAP	71	48	2
TAP	71	72	3
TAP	71	120	5
TAP	71	144	4
STR	71	192	3
SCL	71	192	3	96	48	0
STR	71	192	6
SCL	71	192	6	96	48	3
STR	71	288	3
SI_	71	288	3	96	48	7
TAP	71	288	6
XTP	72	0	1
XTP	72	0	3
TAP	72	48	0
TAP	72	96	1
TAP	72	96	6
TAP	72	144	5
TAP	72	168	4
TAP	72	216	2
TAP	72	240	3
TAP	72	288	2
TAP	72	288	4
TAP	72	336	1
TAP	72	336	5
TAP	73	0	0
TAP	73	48	1
TAP	73	48	7
TAP	73	96	2
TAP	73	96	6
TAP	73	144	5
TAP	73	168	4
TAP	73	216	2
TAP	73	240	3
TAP	73	288	2
TAP	73	288	4
TAP	73	336	1
TAP	73	336	5
STR	74	0	0
SCR	74	0	0	96	48	3
SV_	74	0	0	96	48	3
TAP	74	0	6
STR	74	96	0
SCL	74	96	0	96	48	5
SV_	74	96	0	96	48	5
TAP	74	192	0
TAP	74	288	2
TAP	74	288	3
TAP	75	0	0
TAP	75	24	7
TAP	75	48	0
TAP	75	72	7
TAP	75	96	0
TAP	75	120	7
TAP	75	144	0
TAP	75	168	7
BRK	75	192	1
BRK	75	192	6
TAP	75	336	1
TAP	75	360	0
TAP	76	0	1
TAP	76	48	2
TAP	76	48	7
TAP	76	96	3
TAP	76	96	6
TAP	76	144	5
TAP	76	168	4
TAP	76	216	6
TAP	76	240	7
TAP	76	288	0
TAP	76	288	5
TAP	76	336	1
TAP	76	336	4
TAP	77	0	2
TAP	77	0	3
TAP	77	48	1
TAP	77	48	4
TAP	77	96	0
TAP	77	96	5
TAP	77	144	6
TAP	77	168	7
TAP	77	216	5
TAP	77	240	4
TAP	77	288	3
TAP	77	288	6
TAP	77	336	2
TAP	77	336	7
TAP	78	0	0
HLD	78	0	1	72
HLD	78	72	2	72
TAP	78	144	3
STR	78	192	3
SI_	78	192	3	96	48	7
TAP	78	288	7
TAP	79	0	0
HLD	79	0	6	72
HLD	79	72	5	72
TAP	79	144	4
STR	79	192	4
SI_	79	192	4	96	48	0
TAP	79	288	0
STR	80	0	1
SLR	80	0	1	96	96	7
TAP	80	72	7
TAP	80	144	5
STR	80	192	6
SLL	80	192	6	96	96	0
TAP	80	264	0
TAP	80	336	2
STR	81	0	3
SI_	81	0	3	96	72	7
STR	81	72	7
SCR	81	72	7	96	48	2
TAP	81	144	6
STR	81	192	4
SI_	81	192	4	96	72	0
STR	81	264	0
SCL	81	264	0	96	48	5
TAP	81	336	2
TAP	82	0	1
TAP	82	96	2
TAP	82	96	4
TAP	82	144	1
TAP	82	192	3
TAP	82	192	5
TAP	82	240	6
TAP	82	288	2
TAP	82	288	4
TAP	82	336	1
TAP	83	0	0
TAP	83	0	7
TAP	83	96	4
TAP	83	96	5
TAP	83	144	3
TAP	83	144	6
TAP	83	240	2
TAP	83	240	3
STR	83	288	1
SI_	83	288	1	96	48	4
TAP	83	288	4
TAP	84	0	1
STR	84	0	5
SI_	84	0	5	96	48	0
STR	84	96	2
SI_	84	96	2	96	48	7
TAP	84	96	5
TAP	84	192	2
STR	84	192	6
SI_	84	192	6	96	48	3
STR	84	288	0
SI_	84	288	0	96	48	5
TAP	84	288	6
TAP	85	0	0
STR	85	0	7
SF_	85	0	7	96	48	3
TAP	85	96	7
BRK	85	192	1
BRK	85	192	5
TAP	86	0	2
TAP	86	24	3
TAP	86	48	2
TAP	86	72	3
HLD	86	96	0	48
TAP	86	144	5
TAP	86	168	4
TAP	86	192	5
TAP	86	216	4
HLD	86	240	7	48
TTP	86	288	5	B	0	M1
TTP	86	288	5	E	0	M1
TAP	87	0	2
TAP	87	24	3
TAP	87	48	2
TAP	87	72	3
HLD	87	96	0	48
TAP	87	144	5
TAP	87	168	4
TAP	87	192	5
TAP	87	216	4
HLD	87	240	7	48
TTP	87	288	4	B	0	M1
TTP	87	288	4	E	0	M1
TAP	88	0	1
TAP	88	24	0
TAP	88	48	1
TAP	88	72	0
HLD	88	96	3	48
TAP	88	144	6
TAP	88	168	7
TAP	88	192	6
TAP	88	216	7
HLD	88	240	4	48
TTP	88	288	6	B	0	M1
TTP	88	288	7	E	0	M1
TAP	89	0	1
TAP	89	24	0
TAP	89	48	1
TAP	89	72	0
TAP	89	96	2
TAP	89	120	7
TAP	89	144	2
TAP	89	168	7
TAP	89	192	3
TAP	89	216	6
TAP	89	240	3
TAP	89	264	6
STR	89	288	4
SI_	89	288	4	96	48	7
TAP	89	312	5
TAP	89	336	4
TAP	89	360	5

T_REC_TAP	496
T_REC_BRK	44
T_REC_XTP	65
T_REC_HLD	49
T_REC_XHO	5
T_REC_STR	55
T_REC_BST	2
T_REC_XST	16
T_REC_TTP	16
T_REC_THO	0
T_REC_SLD	79
T_REC_ALL	827
T_NUM_TAP	648
T_NUM_BRK	46
T_NUM_HLD	54
T_NUM_SLD	79
T_NUM_ALL	827
T_JUDGE_TAP	694
T_JUDGE_HLD	80
T_JUDGE_SLD	79
T_JUDGE_ALL	853
TTM_EACHPAIRS	133
TTM_SCR_TAP	324000
TTM_SCR_BRK	119600
TTM_SCR_HLD	54000
TTM_SCR_SLD	118500
TTM_SCR_ALL	616100
TTM_SCR_S	593200
TTM_SCR_SS	611500
TTM_RAT_ACV	10075

