VERSION	0.00.00	1.03.00
FES_MODE	0
BPM_DEF	164.000	164.000	164.000	164.000
MET_DEF	4	4
RESOLUTION	384
CLK_DEF	384
COMPATIBLE_CODE	MA2

BPM	0	0	164.000
MET	0	0	4	4

HLD	1	0	2	96
TAP	1	0	5
TAP	1	96	3
TAP	1	144	3
HLD	1	240	1	96
HLD	1	240	4	96
TAP	2	0	2
HLD	2	0	5	96
TAP	2	96	4
TAP	2	144	4
HLD	2	240	3	96
HLD	2	240	6	96
HLD	3	0	2	96
TAP	3	0	5
TAP	3	96	3
TAP	3	144	3
HLD	3	240	1	96
HLD	3	240	4	96
TAP	4	0	2
HLD	4	0	5	96
TAP	4	96	4
TAP	4	144	4
HLD	4	240	3	96
HLD	4	240	6	96
TAP	5	0	5
TAP	5	48	5
TAP	5	96	3
TAP	5	144	3
TAP	5	192	4
TAP	5	240	4
TAP	5	288	3
TAP	5	288	4
TAP	6	0	2
TAP	6	48	2
TAP	6	96	4
TAP	6	144	4
TAP	6	192	3
TAP	6	240	3
TAP	6	288	3
TAP	6	288	5
TAP	7	0	4
TAP	7	48	4
TAP	7	96	1
TAP	7	144	1
TAP	7	192	3
TAP	7	240	3
TAP	7	288	2
TAP	7	336	2
TAP	8	0	5
TAP	8	48	5
TAP	8	96	3
TAP	8	144	3
TAP	8	192	6
TAP	8	240	6
TAP	8	288	1
TAP	8	288	6
STR	9	0	0
SI_	9	0	0	96	96	4
STR	9	192	7
SI_	9	192	7	96	96	3
STR	10	0	0
SI_	10	0	0	96	96	4
TAP	10	192	5
TAP	10	288	5
STR	11	0	6
SI_	11	0	6	96	96	2
STR	11	192	1
SI_	11	192	1	96	96	5
XTP	12	0	7
XTP	12	72	0
XTP	12	72	6
XTP	12	144	1
XTP	12	144	5
TAP	13	0	0
TAP	13	0	7
STR	13	96	5
SCL	13	96	5	96	96	2
STR	14	0	1
SSR	14	0	1	96	192	5
TAP	15	0	7
STR	15	96	7
SI_	15	96	7	96	96	4
STR	16	0	3
SXR	16	0	3	96	192	0
TAP	17	0	7
STR	17	96	0
SV_	17	96	0	96	96	3
STR	17	96	6
SV_	17	96	6	96	96	3
STR	18	0	4
SI_	18	0	4	96	96	7
STR	18	96	3
SI_	18	96	3	96	96	0
TAP	19	0	6
STR	19	96	6
SUL	19	96	6	96	96	2
TAP	20	0	3
STR	20	96	3
SI_	20	96	3	96	96	0
SV_	20	96	3	96	96	4
TAP	21	0	5
TAP	21	48	5
TAP	21	96	4
XTP	21	192	3
XTP	21	192	6
XTP	21	264	2
XTP	21	264	5
XTP	21	336	1
XTP	21	336	4
TAP	22	0	1
TAP	22	48	2
TAP	22	96	3
XTP	22	192	1
XTP	22	192	4
XTP	22	264	2
XTP	22	264	5
XTP	22	336	3
XTP	22	336	6
TAP	23	0	6
TAP	23	48	5
TAP	23	96	4
XTP	23	192	3
XTP	23	192	6
XTP	23	264	2
XTP	23	264	5
XTP	23	336	1
XTP	23	336	4
TAP	24	0	1
TAP	24	48	2
TAP	24	96	3
XTP	24	192	2
XTP	24	192	5
XTP	24	264	3
XTP	24	264	6
XTP	24	336	4
XTP	24	336	7
TAP	25	0	7
TAP	25	48	6
TAP	25	96	5
XTP	25	192	2
XTP	25	192	4
XTP	25	264	3
XTP	25	264	5
XTP	25	336	2
XTP	25	336	6
TAP	26	0	2
TAP	26	48	3
TAP	26	96	4
XTP	26	192	3
XTP	26	192	5
XTP	26	264	2
XTP	26	264	4
XTP	26	336	1
XTP	26	336	5
TAP	27	0	5
TAP	27	48	4
TAP	27	96	3
XTP	27	192	2
XTP	27	192	4
XTP	27	264	3
XTP	27	264	5
XTP	27	336	2
XTP	27	336	6
TAP	28	0	2
TAP	28	48	3
TAP	28	96	4
XTP	28	192	2
XTP	28	192	5
XTP	28	264	1
XTP	28	264	6
XTP	28	336	0
XTP	28	336	7
TAP	29	0	0
HLD	29	0	7	384
TAP	29	192	5
HLD	30	0	0	384
TAP	30	192	2
HLD	31	0	4	384
TAP	31	192	6
HLD	32	0	3	384
TAP	32	192	1
TAP	33	0	4
STR	33	96	4
SCR	33	96	4	96	96	7
TAP	34	0	3
STR	34	96	3
SCL	34	96	3	96	96	0
TAP	35	0	4
STR	35	96	4
SCR	35	96	4	96	96	7
HLD	36	0	1	192
HLD	36	192	3	192
HLD	37	0	4	192
HLD	37	192	6	192
TAP	38	0	1
XTP	38	48	0
XTP	38	48	7
XTP	38	96	0
XTP	38	96	7
XTP	38	144	0
XTP	38	144	7
XTP	38	192	0
XTP	38	192	7
HLD	39	0	1	72
HLD	39	72	2	72
TAP	39	144	3
HLD	39	192	4	72
HLD	39	264	5	72
TAP	39	336	6
TAP	40	0	4
STR	40	0	7
SI_	40	0	7	96	96	3
XTP	40	192	0
TAP	40	288	0
STR	41	0	2
SCR	41	0	2	96	96	5
STR	41	192	6
SCR	41	192	6	96	96	1
STR	42	0	2
SUR	42	0	2	96	240	4
HLD	43	0	6	72
HLD	43	72	5	72
TAP	43	144	4
HLD	43	192	3	72
HLD	43	264	2	72
TAP	43	336	1
STR	44	0	0
SI_	44	0	0	96	96	4
TAP	44	0	3
XTP	44	192	7
TAP	44	288	7
STR	45	0	5
SI_	45	0	5	96	96	2
STR	45	192	1
SI_	45	192	1	96	96	6
HLD	46	0	5	96
TAP	46	96	4
TAP	46	192	3
HLD	46	288	2	480
TAP	47	0	5
TAP	47	48	5
TAP	47	96	5
TAP	47	192	3
TAP	47	240	3
TAP	47	288	3
TAP	48	0	4
TAP	48	48	4
TAP	48	96	3
BRK	48	192	1
BRK	48	192	6
XTP	49	0	6
XTP	49	0	7
XST	49	72	6
SI_	49	72	6	96	72	3
XST	49	72	7
SI_	49	72	7	96	72	2
XTP	50	0	0
XTP	50	0	1
XST	50	72	0
SI_	50	72	0	96	72	5
XST	50	72	1
SI_	50	72	1	96	72	4
XTP	51	0	6
XTP	51	0	7
XST	51	72	6
SCL	51	72	6	96	72	3
XST	51	72	7
SV_	51	72	7	96	72	2
TAP	52	0	0
TAP	52	0	1
TAP	52	72	2
TAP	52	72	7
TAP	52	144	3
TAP	52	144	6
TAP	52	216	4
TAP	52	216	5
TAP	53	0	2
TAP	53	0	6
STR	53	72	2
SI_	53	72	2	96	72	7
STR	53	72	6
SI_	53	72	6	96	72	3
TAP	54	0	1
TAP	54	0	5
STR	54	72	1
SI_	54	72	1	96	72	4
STR	54	72	5
SI_	54	72	5	96	72	0
TAP	55	0	2
TAP	55	0	6
STR	55	72	2
SI_	55	72	2	96	72	5
STR	55	72	6
SI_	55	72	6	96	72	1
HLD	56	0	0	72
HLD	56	72	1	72
HLD	56	144	2	72
HLD	56	216	3	72
XTP	56	288	4
XTP	56	336	4
HLD	57	0	5	72
HLD	57	72	6	72
XTP	57	144	7
TTP	58	0	3	E	0	M1
TTP	58	0	5	E	0	M1
TTP	58	192	2	E	0	M1
TTP	58	192	6	E	0	M1
TTP	59	0	1	E	0	M1
TTP	59	0	7	E	0	M1
TAP	59	288	2
TAP	59	288	4
TTP	60	0	2	E	0	M1
TTP	60	0	5	E	0	M1
TTP	60	192	1	E	0	M1
TTP	60	192	6	E	0	M1
TTP	61	0	0	E	0	M1
TTP	61	0	7	E	0	M1
TAP	61	288	3
TAP	61	288	5
TTP	62	0	3	E	0	M1
TTP	62	0	6	E	0	M1
TTP	62	192	2	E	0	M1
TTP	62	192	7	E	0	M1
TTP	63	0	0	E	0	M1
TTP	63	0	1	E	0	M1
TAP	63	288	2
TAP	63	288	4
TTP	64	0	0	C	1	M1
TTP	64	0	1	B	0	M1
TTP	64	0	5	B	0	M1
XTP	65	0	0
XTP	65	0	7
XTP	65	72	1
XTP	65	72	6
XTP	65	144	2
XTP	65	144	5
HLD	66	0	5	72
HLD	66	72	6	72
TAP	66	144	7
HLD	66	192	3	72
HLD	66	264	2	72
TAP	66	336	1
TAP	67	0	0
STR	67	0	3
SUR	67	0	3	96	96	7
XTP	67	192	2
TAP	67	288	3
TAP	67	336	3
STR	68	0	5
SCL	68	0	5	96	96	2
STR	68	192	1
SCL	68	192	1	96	96	6
STR	69	0	5
SUL	69	0	5	96	240	3
HLD	70	0	2	72
HLD	70	72	1	72
TAP	70	144	0
HLD	70	192	4	72
HLD	70	264	5	72
TAP	70	336	6
STR	71	0	4
SUL	71	0	4	96	96	0
TAP	71	0	7
XTP	71	192	5
TAP	71	288	4
TAP	71	336	4
STR	72	0	2
SI_	72	0	2	96	96	5
STR	72	192	6
SI_	72	192	6	96	96	1
HLD	73	0	2	96
TAP	73	96	3
TAP	73	192	4
HLD	73	288	5	480
TAP	74	0	2
TAP	74	48	2
TAP	74	96	2
TAP	74	192	4
TAP	74	240	4
TAP	74	288	4
TAP	75	0	3
TAP	75	48	3
TAP	75	96	4
BRK	75	192	1
BRK	75	192	6
TAP	76	0	5
TAP	76	48	5
TAP	76	96	4
TAP	76	192	3
TAP	76	192	6
TAP	76	288	7
TAP	77	0	2
TAP	77	48	2
TAP	77	96	3
TAP	77	192	1
TAP	77	192	4
TAP	77	288	0
STR	78	0	7
SCL	78	0	7	96	96	4
TAP	78	192	2
TAP	78	240	2
TAP	78	288	3
STR	79	0	0
SCR	79	0	0	96	96	3
TAP	79	192	5
TAP	79	240	5
TAP	79	288	4
STR	80	0	6
SCL	80	0	6	96	96	3
STR	80	192	2
SCL	80	192	2	96	96	7
HLD	81	0	6	72
HLD	81	72	5	72
TAP	81	144	4
HLD	81	192	3	72
HLD	81	264	2	72
TAP	81	336	1
STR	82	0	1
SXR	82	0	1	96	240	4
TAP	83	0	5
TAP	83	96	4
TAP	83	96	6
TAP	83	192	2
TAP	83	288	1
TAP	83	288	3
TAP	84	0	0
TAP	84	0	7
TAP	84	96	5
TAP	84	96	6
TAP	84	192	3
TAP	84	192	4
TAP	84	288	1
TAP	84	288	2
TAP	85	0	0
TAP	85	0	7
TAP	85	96	3
TAP	85	96	4
BRK	85	192	1
BRK	85	192	6
TAP	86	0	5
TAP	86	48	5
TAP	86	96	3
TAP	86	96	6
TAP	86	144	3
TAP	86	144	6
HLD	86	240	1	96
HLD	86	240	4	96
TAP	87	0	2
TAP	87	48	2
TAP	87	96	1
TAP	87	96	4
TAP	87	144	1
TAP	87	144	4
HLD	87	240	3	96
HLD	87	240	6	96
TAP	88	0	5
TAP	88	48	5
TAP	88	96	3
TAP	88	96	6
TAP	88	144	3
TAP	88	144	6
HLD	88	240	1	96
HLD	88	240	4	96
TAP	89	0	2
TAP	89	48	2
TAP	89	96	1
TAP	89	96	4
TAP	89	144	1
TAP	89	144	4
TAP	89	240	3
STR	89	240	6
SI_	89	240	6	96	48	2

T_REC_TAP	208
T_REC_BRK	6
T_REC_XTP	80
T_REC_HLD	56
T_REC_XHO	0
T_REC_STR	44
T_REC_BST	0
T_REC_XST	6
T_REC_TTP	21
T_REC_THO	0
T_REC_SLD	51
T_REC_ALL	472
T_NUM_TAP	359
T_NUM_BRK	6
T_NUM_HLD	56
T_NUM_SLD	51
T_NUM_ALL	472
T_JUDGE_TAP	365
T_JUDGE_HLD	160
T_JUDGE_SLD	51
T_JUDGE_ALL	576
TTM_EACHPAIRS	95
TTM_SCR_TAP	179500
TTM_SCR_BRK	15600
TTM_SCR_HLD	56000
TTM_SCR_SLD	76500
TTM_SCR_ALL	327600
TTM_SCR_S	317200
TTM_SCR_SS	327000
TTM_RAT_ACV	10018

