VERSION	0.00.00	1.03.00
FES_MODE	0
BPM_DEF	164.000	164.000	164.000	164.000
MET_DEF	4	4
RESOLUTION	384
CLK_DEF	384
COMPATIBLE_CODE	MA2

BPM	0	0	164.000
MET	0	0	4	4

TAP	1	0	2
TAP	1	96	2
TAP	1	192	2
TAP	1	192	3
TAP	2	0	5
TAP	2	96	5
TAP	2	192	4
TAP	2	192	5
TAP	3	0	2
TAP	3	96	2
TAP	3	192	2
TAP	3	192	3
TAP	4	0	4
TAP	4	96	4
TAP	4	192	3
TAP	4	192	5
TAP	5	0	6
TAP	5	96	6
TAP	5	192	6
TAP	5	192	7
TAP	6	0	1
TAP	6	96	1
TAP	6	192	0
TAP	6	192	1
TAP	7	0	6
TAP	7	96	6
TAP	7	192	6
TAP	7	192	7
TAP	8	0	0
TAP	8	0	7
TAP	8	96	0
TAP	8	96	7
TAP	8	192	1
TAP	8	192	6
TAP	9	0	2
TAP	9	0	3
TAP	9	192	4
TAP	9	192	5
HLD	10	0	3	192
HLD	10	0	6	192
TAP	11	0	4
TAP	11	0	5
TAP	11	192	2
TAP	11	192	3
BRK	12	0	1
BRK	12	0	4
HLD	13	0	5	192
TAP	13	192	4
HLD	14	0	2	192
TAP	14	192	3
HLD	15	0	5	192
TAP	15	192	4
HLD	16	0	2	96
HLD	16	0	3	96
TAP	16	192	2
TAP	16	192	3
HLD	17	0	1	192
TAP	17	192	0
HLD	18	0	6	192
TAP	18	192	7
HLD	19	0	1	192
TAP	19	192	0
HLD	20	0	0	96
HLD	20	0	7	96
XTP	20	192	1
XTP	20	192	6
TAP	21	0	5
TAP	21	96	5
TAP	21	192	4
TAP	22	0	2
TAP	22	96	2
TAP	22	192	3
TAP	23	0	5
TAP	23	96	5
TAP	23	192	4
TAP	24	0	3
TAP	24	96	3
TAP	24	192	2
TAP	24	192	4
TAP	25	0	1
TAP	25	96	1
TAP	25	192	0
TAP	26	0	6
TAP	26	96	6
TAP	26	192	7
TAP	27	0	1
TAP	27	96	1
TAP	27	192	0
TAP	28	0	0
TAP	28	0	7
TAP	28	96	0
TAP	28	96	7
XTP	28	192	1
XTP	28	192	6
TTP	29	0	2	E	0	L1
TTP	29	192	3	E	0	L1
TTP	30	0	0	C	0	L1
TTP	30	0	1	B	0	L1
TTP	30	0	6	B	0	L1
TTP	31	0	6	E	0	L1
TTP	31	192	5	E	0	L1
TTP	32	0	0	C	0	L1
TTP	32	0	2	B	0	L1
TTP	32	0	5	B	0	L1
XST	33	0	0
SCR	33	0	0	96	192	3
XST	34	0	4
SCR	34	0	4	96	192	7
TAP	35	0	1
TAP	35	96	1
TAP	35	192	0
TAP	36	0	6
TAP	36	96	6
TAP	36	192	7
TAP	37	0	0
TAP	37	96	0
TAP	37	192	7
TAP	37	288	7
TAP	38	0	0
TAP	38	0	7
TAP	38	96	0
TAP	38	96	7
TAP	38	192	1
TAP	38	192	6
BRK	39	0	1
TAP	39	96	1
TAP	39	192	0
TAP	39	192	1
TAP	39	288	0
TAP	39	288	1
TAP	40	0	6
TAP	40	96	6
TAP	40	192	6
TAP	40	192	7
TAP	40	288	6
TAP	40	288	7
TAP	41	0	5
TAP	41	96	5
TAP	41	192	4
TAP	41	288	4
HLD	42	0	2	144
HLD	42	0	5	144
BRK	43	0	6
TAP	43	96	6
TAP	43	192	6
TAP	43	192	7
TAP	43	288	6
TAP	43	288	7
TAP	44	0	1
TAP	44	96	1
TAP	44	192	0
TAP	44	192	1
TAP	44	288	0
TAP	44	288	1
TAP	45	0	2
TAP	45	96	2
TAP	45	192	3
TAP	45	288	3
TAP	46	0	4
TAP	46	96	4
TAP	46	192	5
TAP	46	288	5
XTP	47	0	6
XTP	47	96	5
XTP	47	192	4
XTP	47	288	3
XTP	48	0	2
XTP	48	96	1
BRK	48	192	0
BRK	48	192	7
STR	49	0	6
SI_	49	0	6	96	192	2
STR	50	0	1
SI_	50	0	1	96	192	5
STR	51	0	6
SI_	51	0	6	96	192	3
TAP	52	0	2
TAP	52	192	2
TAP	52	192	3
STR	53	0	4
SI_	53	0	4	96	192	7
STR	54	0	0
SI_	54	0	0	96	192	3
STR	55	0	4
SCR	55	0	4	96	192	7
TAP	56	0	1
TAP	56	96	0
TAP	56	96	1
TAP	56	192	6
TAP	56	288	6
TAP	56	288	7
TAP	57	0	0
TAP	57	96	0
TAP	57	96	7
TAP	57	192	1
TAP	57	192	6
TTP	58	0	7	B	0	L1
TTP	58	0	7	E	0	L1
TTP	58	192	5	B	0	L1
TTP	58	192	6	E	0	L1
TTP	59	0	3	B	0	L1
TTP	59	0	4	B	0	L1
TTP	60	0	0	B	0	L1
TTP	60	0	1	E	0	L1
TTP	60	192	2	B	0	L1
TTP	60	192	2	E	0	L1
TTP	61	0	0	C	1	L1
TTP	61	0	3	B	0	L1
TTP	61	0	4	B	0	L1
TTP	62	0	4	E	0	L1
TTP	62	192	3	B	0	L1
TTP	62	192	4	B	0	L1
TTP	63	0	0	C	0	L1
TTP	63	0	2	B	0	L1
TTP	63	0	5	B	0	L1
HLD	64	0	1	192
HLD	64	0	6	192
XTP	65	0	0
XTP	65	0	7
XTP	65	72	0
XTP	65	72	7
XTP	65	144	0
XTP	65	144	7
BRK	66	0	6
TAP	66	96	6
TAP	66	96	7
TAP	66	192	6
TAP	66	288	6
TAP	66	288	7
TAP	67	0	1
TAP	67	96	0
TAP	67	96	1
TAP	67	192	1
TAP	67	288	0
TAP	67	288	1
TAP	68	0	2
TAP	68	96	2
TAP	68	192	3
TAP	68	288	3
HLD	69	0	2	144
HLD	69	0	5	144
BRK	70	0	1
TAP	70	96	0
TAP	70	96	1
TAP	70	192	1
TAP	70	288	0
TAP	70	288	1
TAP	71	0	6
TAP	71	96	6
TAP	71	96	7
TAP	71	192	6
TAP	71	288	6
TAP	71	288	7
TAP	72	0	5
TAP	72	96	5
TAP	72	192	4
TAP	72	288	4
TAP	73	0	3
TAP	73	96	3
TAP	73	192	2
TAP	73	288	2
XTP	74	0	1
XTP	74	96	2
XTP	74	192	3
XTP	74	288	4
XTP	75	0	5
XTP	75	96	6
BRK	75	192	0
BRK	75	192	7
TAP	76	0	0
HLD	76	0	1	192
TAP	76	192	0
TAP	76	288	7
HLD	77	0	6	192
TAP	77	192	7
TAP	77	288	0
STR	78	0	1
SI_	78	0	1	96	192	5
STR	79	0	6
SI_	79	0	6	96	192	3
HLD	80	0	2	192
TAP	80	192	3
TAP	80	288	4
HLD	81	0	5	192
TAP	81	192	4
TAP	81	288	3
TAP	82	0	2
TAP	82	96	1
TAP	82	192	0
TAP	82	288	7
TAP	83	0	6
TAP	83	96	5
TAP	83	192	4
TAP	83	288	3
TAP	84	0	3
TAP	84	0	4
TAP	84	96	3
TAP	84	96	4
TAP	84	192	2
TAP	84	192	5
TAP	84	288	2
TAP	84	288	5
TAP	85	0	1
TAP	85	0	6
TAP	85	96	1
TAP	85	96	6
BRK	85	192	0
BRK	85	192	7
HLD	86	0	6	96
TAP	86	96	7
TAP	86	192	6
TAP	86	192	7
HLD	87	0	1	96
TAP	87	96	0
TAP	87	192	0
TAP	87	192	1
HLD	88	0	6	96
TAP	88	96	7
TAP	88	192	6
TAP	88	192	7
TAP	89	0	0
TAP	89	0	7
TAP	89	96	0
TAP	89	96	7
TAP	89	192	1
TAP	89	192	6
TAP	89	288	1
TAP	89	288	6

T_REC_TAP	220
T_REC_BRK	12
T_REC_XTP	22
T_REC_HLD	25
T_REC_XHO	0
T_REC_STR	8
T_REC_BST	0
T_REC_XST	2
T_REC_TTP	29
T_REC_THO	0
T_REC_SLD	10
T_REC_ALL	328
T_NUM_TAP	281
T_NUM_BRK	12
T_NUM_HLD	25
T_NUM_SLD	10
T_NUM_ALL	328
T_JUDGE_TAP	293
T_JUDGE_HLD	82
T_JUDGE_SLD	10
T_JUDGE_ALL	385
TTM_EACHPAIRS	71
TTM_SCR_TAP	140500
TTM_SCR_BRK	31200
TTM_SCR_HLD	25000
TTM_SCR_SLD	15000
TTM_SCR_ALL	211700
TTM_SCR_S	204200
TTM_SCR_SS	210500
TTM_RAT_ACV	10057

