VERSION	0.00.00	1.03.00
FES_MODE	0
BPM_DEF	164.000	164.000	164.000	164.000
MET_DEF	4	4
RESOLUTION	384
CLK_DEF	384
COMPATIBLE_CODE	MA2

BPM	0	0	164.000
MET	0	0	4	4

TAP	5	0	0
TAP	6	0	0
TAP	7	0	7
TAP	8	0	7
HLD	9	0	0	384
HLD	11	0	7	384
TAP	13	0	0
TAP	14	0	0
TAP	15	0	1
TAP	16	0	1
TAP	17	0	2
TAP	18	0	2
TAP	19	0	3
TAP	20	0	3
TAP	20	0	4
TAP	21	0	4
TAP	21	192	4
TAP	22	0	4
TAP	23	0	5
TAP	23	192	5
TAP	24	0	5
TAP	25	0	6
TAP	25	192	6
TAP	26	0	6
TAP	27	0	7
TAP	27	192	7
XTP	28	0	0
XTP	28	0	7
STR	29	0	7
SI_	29	0	7	96	288	4
STR	31	0	0
SI_	31	0	0	96	288	3
STR	33	0	7
SI_	33	0	7	96	288	3
STR	35	0	0
SI_	35	0	0	96	288	4
TAP	37	0	7
XTP	38	0	7
TAP	39	0	7
TAP	39	192	7
TAP	40	0	6
TAP	40	192	6
TAP	41	0	5
TAP	41	192	5
TAP	42	0	4
XTP	42	192	3
XTP	42	192	4
TAP	43	0	3
TAP	43	192	3
TAP	44	0	2
TAP	44	192	2
TAP	45	0	1
TAP	45	192	1
TAP	46	0	0
TAP	46	192	0
XTP	47	0	7
XTP	47	192	7
XTP	48	0	0
XTP	48	0	7
HLD	49	0	0	384
HLD	49	0	1	384
HLD	51	0	2	384
HLD	51	0	3	384
HLD	53	0	4	384
HLD	53	0	5	384
HLD	55	0	6	384
HLD	55	0	7	384
XTP	57	0	0
XTP	57	0	7
STR	58	0	7
SI_	58	0	7	96	288	4
STR	60	0	3
SI_	60	0	3	96	288	0
TAP	62	0	7
TAP	62	192	7
TAP	63	0	6
TAP	63	0	7
TAP	64	0	0
TAP	64	192	0
TAP	65	0	0
TAP	65	0	1
BRK	66	0	7
TAP	66	96	7
TAP	66	192	7
TAP	67	0	6
TAP	67	192	6
TAP	68	0	5
TAP	68	96	5
TAP	68	192	5
TAP	69	0	4
TAP	69	192	3
TAP	69	192	4
TAP	70	0	3
TAP	70	96	3
TAP	70	192	3
TAP	71	0	2
TAP	71	192	2
TAP	72	0	1
TAP	72	96	1
TAP	72	192	1
TAP	73	0	0
TAP	73	192	0
TAP	74	0	7
TAP	74	192	7
TAP	75	0	0
TAP	75	0	7
BRK	75	192	1
BRK	75	192	6
HLD	76	0	0	192
TAP	77	0	0
TAP	77	192	0
HLD	78	0	1	192
TAP	79	0	1
TAP	79	192	1
HLD	80	0	2	192
TAP	81	0	2
TAP	81	192	2
HLD	82	0	3	192
TAP	83	0	3
TAP	83	192	3
TAP	84	0	3
TAP	84	0	4
TAP	84	192	3
TAP	84	192	4
BRK	85	0	2
BRK	85	0	5
TTP	86	0	4	B	0	L1
TTP	86	0	5	E	0	L1
TTP	87	0	3	B	0	L1
TTP	87	0	3	E	0	L1
TTP	88	0	2	B	0	L1
TTP	88	0	5	B	0	L1
THO	89	0	0	360	C	0	L1

T_REC_TAP	84
T_REC_BRK	5
T_REC_XTP	11
T_REC_HLD	14
T_REC_XHO	0
T_REC_STR	6
T_REC_BST	0
T_REC_XST	0
T_REC_TTP	6
T_REC_THO	1
T_REC_SLD	6
T_REC_ALL	133
T_NUM_TAP	107
T_NUM_BRK	5
T_NUM_HLD	15
T_NUM_SLD	6
T_NUM_ALL	133
T_JUDGE_TAP	112
T_JUDGE_HLD	104
T_JUDGE_SLD	6
T_JUDGE_ALL	222
TTM_EACHPAIRS	17
TTM_SCR_TAP	53500
TTM_SCR_BRK	13000
TTM_SCR_HLD	15000
TTM_SCR_SLD	9000
TTM_SCR_ALL	90500
TTM_SCR_S	87300
TTM_SCR_SS	90000
TTM_RAT_ACV	10055

