VERSION	0.00.00	1.03.00
FES_MODE	0
BPM_DEF	175.000	175.000	175.000	175.000
MET_DEF	4	4
RESOLUTION	384
CLK_DEF	384
COMPATIBLE_CODE	MA2

BPM	0	0	175.000
MET	0	0	4	4

STR	2	0	2
SCL	2	0	2	96	96	7
STR	2	192	5
SCL	2	192	5	96	96	2
STR	3	0	0
SCL	3	0	0	96	96	5
STR	4	0	5
SCR	4	0	5	96	96	0
STR	4	192	2
SCR	4	192	2	96	96	5
STR	5	0	7
SCR	5	0	7	96	96	2
STR	6	0	3
SCL	6	0	3	96	96	0
STR	6	192	6
SCL	6	192	6	96	96	3
STR	7	0	1
SCL	7	0	1	96	96	6
STR	8	0	7
SI_	8	0	7	96	48	2
SI_	8	0	7	96	48	4
STR	8	192	0
SI_	8	192	0	96	48	3
SI_	8	192	0	96	48	5
BRK	9	0	7
TAP	9	192	3
TAP	9	216	4
TAP	9	240	3
TAP	9	288	2
TAP	9	288	5
STR	10	0	6
SCR	10	0	6	96	48	1
TAP	10	96	4
STR	10	192	2
SCR	10	192	2	96	48	5
TAP	10	288	7
HLD	10	336	7	96
TAP	11	48	4
STR	11	96	4
SCL	11	96	4	96	48	1
TAP	11	192	7
TAP	11	288	6
STR	11	336	6
SCL	11	336	6	96	48	3
TAP	12	48	2
STR	12	96	2
SCL	12	96	2	96	48	7
HLD	12	192	4	96
TAP	12	288	5
TAP	12	336	5
TAP	13	48	2
TAP	13	96	1
TAP	13	96	3
TAP	13	192	5
TAP	13	240	4
TAP	13	288	3
TAP	13	288	6
TAP	13	336	3
TAP	13	336	6
TAP	14	48	2
HLD	14	96	2	96
STR	14	192	5
SCL	14	192	5	96	48	2
TAP	14	288	0
HLD	14	336	0	96
TAP	15	48	3
STR	15	96	3
SCR	15	96	3	96	48	6
TAP	15	192	0
TAP	15	288	0
STR	15	336	0
SCR	15	336	0	96	48	3
TAP	16	48	5
STR	16	96	5
SCR	16	96	5	96	48	0
HLD	16	192	3	96
TAP	16	288	2
STR	16	336	2
SI_	16	336	2	96	48	6
TAP	17	48	0
HLD	17	96	0	96
TAP	17	192	7
TAP	17	240	1
TAP	17	240	6
TAP	17	288	2
TAP	17	288	5
TAP	18	0	4
TAP	18	0	6
HLD	18	48	4	96
HLD	18	48	6	96
TAP	18	192	5
TAP	18	240	5
TAP	18	288	2
TAP	18	288	4
TAP	19	0	1
TAP	19	0	3
HLD	19	48	1	96
HLD	19	48	3	96
TAP	19	192	2
TAP	19	240	2
TAP	19	288	5
TAP	20	0	3
TAP	20	0	4
HLD	20	48	3	96
HLD	20	48	4	96
TTP	20	192	4	E	0	M1
TTP	20	288	3	E	0	M1
TTP	20	288	5	E	0	M1
TAP	21	0	3
TAP	21	0	4
HLD	21	48	3	96
HLD	21	48	4	96
TAP	21	192	5
TAP	21	240	5
TAP	21	288	2
TAP	22	0	1
TAP	22	0	3
HLD	22	48	1	96
HLD	22	48	3	96
TAP	22	192	2
TAP	22	240	2
TAP	22	288	3
TAP	22	288	5
TAP	23	0	4
TAP	23	0	6
HLD	23	48	4	96
HLD	23	48	6	96
TAP	23	192	5
TAP	23	240	5
TAP	23	288	2
TAP	24	0	3
TAP	24	0	4
HLD	24	48	3	96
HLD	24	48	4	96
TTP	24	192	4	E	0	M1
TTP	24	288	3	E	0	M1
TTP	24	288	5	E	0	M1
XTP	25	0	3
XTP	25	0	4
TAP	25	48	2
TAP	25	48	5
XTP	25	96	2
XTP	25	96	5
TAP	25	144	2
TAP	25	144	5
XTP	25	192	2
XTP	25	192	5
BRK	25	288	0
STR	26	0	4
SI_	26	0	4	96	48	0
TAP	26	0	6
TAP	26	96	7
TAP	26	192	1
STR	26	192	3
SI_	26	192	3	96	48	7
TAP	26	288	0
STR	27	0	4
SI_	27	0	4	96	48	0
TAP	27	0	6
TAP	27	96	7
TAP	27	192	2
TAP	27	192	4
TAP	27	264	1
TAP	27	264	5
STR	27	336	0
SCR	27	336	0	96	240	7
HLD	27	336	6	336
TAP	29	0	1
TAP	29	96	0
TAP	29	96	2
TAP	29	192	6
TAP	29	288	5
TAP	29	288	7
TAP	30	0	3
STR	30	0	5
SI_	30	0	5	96	48	0
TAP	30	96	1
STR	30	192	2
SI_	30	192	2	96	48	7
TAP	30	192	4
TAP	30	288	4
TAP	31	0	3
TAP	31	0	5
TAP	31	96	5
TAP	31	144	4
TAP	31	192	3
TAP	31	192	6
TAP	31	288	1
TAP	31	288	4
TAP	32	0	4
TAP	32	0	6
TAP	32	48	4
TAP	32	48	6
BRK	32	96	7
TAP	32	192	1
TAP	32	192	3
TAP	32	240	1
TAP	32	240	3
BRK	32	288	0
TAP	33	0	4
TAP	33	48	3
TAP	33	48	4
TAP	33	96	3
TAP	33	96	4
TAP	33	144	3
TAP	33	144	4
TAP	33	192	3
TAP	33	192	4
STR	33	288	6
SCL	33	288	6	96	192	7
HLD	34	0	1	192
TAP	34	288	0
TAP	34	336	0
HLD	35	0	7	192
HLD	35	192	5	192
HLD	36	0	3	192
HLD	36	192	1	192
HLD	37	0	7	192
TAP	37	192	3
TAP	37	240	3
TAP	37	288	2
TAP	37	288	4
STR	38	0	1
SI_	38	0	1	96	48	4
TAP	38	96	0
STR	38	192	6
SI_	38	192	6	96	48	3
TAP	38	288	7
STR	39	0	1
SI_	39	0	1	96	48	4
TAP	39	96	0
STR	39	192	6
SI_	39	192	6	96	48	3
TAP	39	288	7
HLD	40	0	1	96
HLD	40	96	3	96
HLD	40	192	5	96
TAP	40	288	7
TAP	40	336	7
TAP	41	48	2
TAP	41	96	1
TAP	41	96	3
TAP	41	192	5
TAP	41	240	4
TAP	41	240	6
TAP	41	336	0
TAP	41	336	7
XTP	42	48	2
XTP	42	48	5
XTP	42	96	2
XTP	42	96	5
XTP	42	144	2
XTP	42	144	5
XTP	42	192	2
XTP	42	192	5
BRK	42	288	0
STR	43	0	7
SI_	43	0	7	96	48	3
TAP	43	48	0
TAP	43	96	1
TAP	43	96	7
STR	43	192	0
SI_	43	192	0	96	48	4
TAP	43	240	7
TAP	43	288	0
TAP	43	288	6
STR	44	0	7
SI_	44	0	7	96	48	3
TAP	44	48	7
STR	44	96	4
SCL	44	96	4	96	96	0
TAP	44	144	4
TAP	44	192	6
XTP	44	240	7
XTP	44	288	7
XTP	44	336	7
TAP	45	0	4
XTP	45	0	7
TAP	45	48	3
TAP	45	96	2
TAP	45	96	5
TAP	45	192	2
TAP	45	240	3
XTP	45	288	1
XST	45	288	4
SI_	45	288	4	96	48	6
XST	46	0	3
SI_	46	0	3	96	48	1
XTP	46	0	4
XTP	46	96	3
XST	46	96	4
SI_	46	96	4	96	48	7
XTP	46	192	3
XTP	46	192	4
STR	46	288	2
SXL	46	288	2	96	96	2
HLD	47	0	5	192
TAP	47	192	0
TAP	47	288	2
TAP	47	288	6
STR	48	0	0
SI_	48	0	0	96	48	3
STR	48	48	7
SI_	48	48	7	96	48	4
TAP	48	192	0
TAP	48	288	4
TAP	48	336	3
TAP	49	0	2
TAP	49	48	3
TAP	49	96	1
TAP	49	144	5
TAP	49	192	4
TAP	49	240	6
STR	49	288	2
SXL	49	288	2	96	144	3
SLL	49	288	2	96	144	3
TAP	50	240	7
TAP	50	288	7
STR	51	0	0
SV_	51	0	0	96	48	3
TAP	51	48	7
TAP	51	96	0
TAP	51	96	6
STR	51	192	7
SV_	51	192	7	96	48	4
TAP	51	240	0
TAP	51	288	1
TAP	51	288	7
STR	52	0	0
SI_	52	0	0	96	48	4
TAP	52	48	0
STR	52	96	3
SLR	52	96	3	96	96	7
TAP	52	144	3
TAP	52	192	1
XTP	52	240	0
XTP	52	288	0
XTP	52	336	0
XTP	53	0	0
TAP	53	0	3
TAP	53	48	4
TAP	53	96	2
TAP	53	96	5
TAP	53	192	5
TAP	53	240	4
XST	53	288	3
SI_	53	288	3	96	48	1
XTP	53	288	6
XTP	54	0	3
XST	54	0	4
SI_	54	0	4	96	48	6
XST	54	96	3
SI_	54	96	3	96	48	0
XTP	54	96	4
XTP	54	192	3
XTP	54	192	4
STR	54	288	5
SXR	54	288	5	96	96	5
HLD	55	0	2	192
TAP	55	192	7
TAP	55	288	1
TAP	55	288	5
STR	56	0	6
SI_	56	0	6	96	48	3
STR	56	48	2
SI_	56	48	2	96	48	7
TAP	56	192	4
TAP	56	288	3
TAP	56	288	5
TAP	57	0	2
TAP	57	48	3
TAP	57	96	1
TAP	57	144	5
TAP	57	192	4
TAP	57	240	6
STR	57	288	2
SXL	57	288	2	96	144	3
SLL	57	288	2	96	144	3
TAP	58	288	3
TAP	58	288	4
TAP	59	0	5
HLD	59	48	5	240
TAP	59	144	4
TAP	59	240	2
TAP	59	288	3
HLD	59	336	3	336
TAP	60	48	2
TAP	60	144	0
TAP	60	240	7
TAP	60	288	6
HLD	60	336	6	336
TAP	61	48	5
TAP	61	144	7
TAP	61	240	1
TAP	61	288	0
HLD	61	336	0	240
TAP	62	48	1
TAP	62	144	3
TAP	62	192	3
TAP	62	288	2
TAP	62	288	4
TAP	62	336	2
HLD	62	336	4	336
TTP	63	48	5	E	0	M1
TTP	63	144	7	E	0	M1
TTP	63	240	1	E	0	M1
TAP	63	288	2
HLD	63	336	2	336
TTP	64	48	4	E	0	M1
TTP	64	144	2	E	0	M1
TTP	64	240	6	E	0	M1
TAP	64	288	7
HLD	64	336	7	336
TTP	65	48	7	E	0	M1
TTP	65	144	5	E	0	M1
TTP	65	240	3	E	0	M1
TAP	65	288	1
TAP	65	336	1
TAP	66	0	5
TAP	66	48	5
TAP	66	96	3
TAP	66	144	3
TAP	66	192	7
TAP	66	216	6
TAP	66	240	5
TAP	66	264	4
TAP	66	288	3
TAP	66	312	2
TAP	66	336	1
TAP	66	360	0
TAP	67	0	3
TAP	67	0	7
HLD	67	96	1	96
TAP	67	192	3
TAP	67	240	3
TAP	67	288	0
HLD	67	336	0	144
HLD	67	336	7	144
TAP	68	144	1
TAP	68	144	6
TAP	68	192	1
TAP	68	192	6
TAP	68	264	4
TAP	68	264	5
TAP	68	336	2
TAP	68	336	3
TAP	69	48	5
TAP	69	96	5
TAP	69	120	4
HLD	69	144	6	96
TAP	69	240	7
TAP	69	288	7
TAP	70	0	2
TAP	70	48	2
TAP	70	72	3
TAP	70	96	1
TAP	70	144	5
TAP	70	168	4
TAP	70	192	6
TAP	70	240	2
TAP	70	264	3
TAP	70	288	1
TAP	70	336	5
TAP	70	360	4
TAP	71	0	6
TAP	71	48	1
TAP	71	72	0
TAP	71	96	2
TAP	71	144	6
TAP	71	168	7
TAP	71	192	5
TAP	71	240	1
TAP	71	264	0
TAP	71	288	2
TAP	71	336	6
TAP	71	360	7
TAP	72	0	5
TAP	72	48	3
TAP	72	72	4
TAP	72	96	3
TAP	72	120	4
TAP	72	144	3
TAP	72	168	4
TAP	72	192	3
TAP	72	216	4
TAP	72	240	3
TAP	72	264	4
STR	72	288	3
SXR	72	288	3	96	288	0
HLD	73	0	5	144
XTP	73	240	4
XTP	73	288	4
TAP	74	0	3
TAP	74	48	3
TAP	74	48	4
TAP	74	96	3
TAP	74	96	4
TAP	74	144	3
TAP	74	144	4
TAP	74	192	3
TAP	74	192	4
TAP	74	288	1
TAP	74	288	6
STR	75	0	0
SI_	75	0	0	96	48	4
TAP	75	96	0
TAP	75	192	5
STR	75	240	5
SUL	75	240	5	96	192	3
HLD	75	336	0	288
TAP	76	240	4
TAP	76	288	4
HLD	77	0	3	96
TAP	77	96	2
TAP	77	192	2
TAP	77	240	3
TAP	77	288	5
HLD	77	336	6	96
TAP	78	48	4
TAP	78	144	0
TAP	78	192	0
TAP	78	288	1
TAP	78	288	3
TAP	79	0	4
TAP	79	0	6
TAP	79	96	0
TAP	79	96	2
TAP	79	192	5
TAP	79	192	7
TAP	79	288	1
TAP	79	288	3
TAP	80	0	2
TAP	80	24	3
TAP	80	48	2
TAP	80	96	5
TAP	80	120	4
TAP	80	144	5
HLD	80	192	7	96
TAP	80	288	0
TAP	81	0	7
TAP	81	24	6
TAP	81	48	5
TAP	81	72	4
TAP	81	96	3
TAP	81	120	2
TAP	81	144	1
TAP	81	168	0
TAP	81	192	7
TAP	81	216	6
TAP	81	240	5
TAP	81	264	4
TAP	81	288	3
TAP	81	312	2
TAP	81	336	1
TAP	81	360	0
HLD	82	0	7	192
XTP	82	48	3
XTP	82	96	3
XTP	82	144	3
XTP	82	192	3
TAP	82	288	2
STR	83	0	1
SXL	83	0	1	96	576	5
TTP	84	0	0	E	0	M1
TTP	84	192	7	E	0	M1
HLD	85	0	6	384
TTP	86	0	4	B	0	M1
TTP	86	0	5	B	0	M1
BRK	86	96	7
STR	86	192	0
SI_	86	192	0	96	48	3
STR	87	0	6
SI_	87	0	6	96	192	2
TTP	87	192	1	E	0	M1
STR	88	0	1
SI_	88	0	1	96	192	5
TTP	88	192	7	E	0	M1
TAP	89	0	6
STR	89	0	7
SI_	89	0	7	96	48	3
TAP	89	96	1
TAP	89	96	7
STR	89	192	0
SI_	89	192	0	96	48	4
TAP	89	192	1
TAP	89	288	0
STR	89	288	6
SCL	89	288	6	96	192	7
TTP	90	0	0	C	1	M1
TAP	90	240	0
TAP	90	288	0
STR	91	0	3
SI_	91	0	3	96	48	0
TAP	91	48	4
TAP	91	96	3
TAP	91	96	5
STR	91	192	4
SI_	91	192	4	96	48	7
TAP	91	240	3
TAP	91	288	2
TAP	91	288	4
STR	92	0	0
SI_	92	0	0	96	48	4
TAP	92	48	0
STR	92	96	3
SCR	92	96	3	96	96	7
TAP	92	144	3
TAP	92	192	1
XTP	92	240	0
XTP	92	288	0
XTP	92	336	0
XTP	93	0	0
TAP	93	0	3
TAP	93	48	4
TAP	93	96	2
TAP	93	96	5
TAP	93	192	5
TAP	93	240	4
XST	93	288	3
SI_	93	288	3	96	48	1
XTP	93	288	6
XTP	94	0	3
XST	94	0	4
SI_	94	0	4	96	48	6
XST	94	96	3
SI_	94	96	3	96	48	0
XST	94	96	4
SI_	94	96	4	96	48	7
XTP	94	192	3
XTP	94	192	4
TAP	94	288	0
STR	94	288	5
SXR	94	288	5	96	96	5
TAP	95	0	0
STR	95	96	1
SXR	95	96	1	96	96	1
TAP	95	192	4
TAP	95	288	5
STR	96	0	4
SI_	96	0	4	96	48	7
STR	96	48	3
SI_	96	48	3	96	48	0
XTP	96	192	7
TAP	96	288	4
TAP	96	336	3
TAP	97	0	2
TAP	97	48	3
TAP	97	96	0
TAP	97	144	5
TAP	97	192	4
TAP	97	240	7
STR	97	288	2
SXL	97	288	2	96	144	3
SLL	97	288	2	96	144	3
TAP	98	240	0
TAP	98	288	0
XTP	99	0	6
XTP	99	0	7
XTP	99	48	0
XTP	99	48	5
XTP	99	96	1
XTP	99	96	4
XTP	99	192	0
XTP	99	192	1
XTP	99	240	2
XTP	99	240	7
XST	99	288	3
SXL	99	288	3	96	96	3
SXR	99	288	3	96	96	3
XTP	99	288	6
XTP	100	0	3
TAP	100	192	0
TAP	100	192	6
XTP	100	240	7
XTP	100	288	7
XTP	100	336	7
TAP	101	0	4
XTP	101	0	7
TAP	101	48	3
TAP	101	96	2
TAP	101	96	5
TAP	101	192	1
TAP	101	240	3
STR	101	288	0
SI_	101	288	0	96	48	4
BRK	102	0	0
BRK	102	96	1
STR	102	96	3
SI_	102	96	3	96	24	7
BRK	102	192	2
XTP	102	192	3
TTP	102	204	0	C	1	M1
TAP	102	288	0
TAP	102	336	0
HLD	103	0	7	192
TAP	103	48	5
TAP	103	96	5
HLD	103	192	0	96
TAP	103	240	2
TAP	103	288	2
STR	104	0	0
SCR	104	0	0	96	48	3
STR	104	48	7
SCL	104	48	7	96	48	4
BRK	104	192	0
TAP	104	288	3
TAP	104	288	5
TAP	105	0	6
TAP	105	48	4
TAP	105	96	7
TAP	105	144	3
STR	105	192	2
SCR	105	192	2	96	48	5
TAP	105	240	4
STR	105	288	2
SXL	105	288	2	96	288	3
SLL	105	288	2	96	288	3
TTP	107	0	0	C	1	M1
TAP	107	336	3
TAP	107	360	4
TAP	108	0	5

T_REC_TAP	396
T_REC_BRK	10
T_REC_XTP	64
T_REC_HLD	52
T_REC_XHO	0
T_REC_STR	73
T_REC_BST	0
T_REC_XST	11
T_REC_TTP	24
T_REC_THO	0
T_REC_SLD	91
T_REC_ALL	721
T_NUM_TAP	568
T_NUM_BRK	10
T_NUM_HLD	52
T_NUM_SLD	91
T_NUM_ALL	721
T_JUDGE_TAP	578
T_JUDGE_HLD	173
T_JUDGE_SLD	91
T_JUDGE_ALL	842
TTM_EACHPAIRS	119
TTM_SCR_TAP	284000
TTM_SCR_BRK	26000
TTM_SCR_HLD	52000
TTM_SCR_SLD	136500
TTM_SCR_ALL	498500
TTM_SCR_S	482600
TTM_SCR_SS	497500
TTM_RAT_ACV	10020

