VERSION	0.00.00	1.03.00
FES_MODE	0
BPM_DEF	175.000	175.000	175.000	175.000
MET_DEF	4	4
RESOLUTION	384
CLK_DEF	384
COMPATIBLE_CODE	MA2

BPM	0	0	175.000
MET	0	0	4	4

HLD	2	0	2	384
HLD	3	0	3	384
HLD	4	0	4	384
TAP	5	0	5
TAP	5	192	4
TAP	5	192	5
HLD	6	0	3	576
HLD	7	0	4	192
TAP	7	288	2
TAP	7	288	5
XHO	8	0	4	96
XHO	8	0	6	96
XHO	8	192	2	96
XHO	8	192	3	96
XST	9	0	0
SI_	9	0	0	96	144	4
TAP	10	0	6
TAP	10	96	5
TAP	10	192	3
TAP	10	288	2
TAP	10	288	4
TAP	11	0	1
TAP	11	96	2
TAP	11	192	4
TAP	11	288	3
TAP	11	288	5
TAP	12	0	6
TAP	12	96	5
TAP	12	192	3
TAP	12	288	2
TAP	13	0	2
TAP	13	0	3
TAP	13	96	3
TAP	13	96	4
TAP	13	192	4
TAP	13	192	5
TAP	14	0	6
TAP	14	96	6
TAP	14	192	4
TAP	14	192	5
TAP	14	288	3
TAP	14	288	4
TAP	15	0	2
TAP	15	96	2
TAP	15	192	0
TAP	15	192	1
TAP	15	288	0
TAP	15	288	7
TAP	16	0	6
TAP	16	96	5
TAP	16	192	3
TAP	16	192	4
STR	16	288	2
SUR	16	288	2	96	240	5
TAP	18	0	5
HLD	18	48	5	144
TTP	18	192	4	B	0	M1
TTP	18	192	5	B	0	M1
TAP	19	0	2
HLD	19	48	2	144
TTP	19	192	2	B	0	M1
TTP	19	192	3	B	0	M1
TAP	20	0	6
HLD	20	48	6	144
TTP	20	192	4	B	0	M1
TTP	20	192	5	B	0	M1
TAP	21	0	3
HLD	21	48	3	144
TAP	21	192	4
TAP	21	288	3
TAP	21	288	4
TAP	22	0	2
TAP	22	0	3
TAP	22	48	2
HLD	22	48	3	144
TTP	22	192	1	B	0	M1
TTP	22	192	1	E	0	M1
TAP	23	0	4
TAP	23	0	5
HLD	23	48	4	144
TAP	23	48	5
TTP	23	192	6	B	0	M1
TTP	23	192	6	E	0	M1
TAP	24	0	3
TAP	24	0	4
HLD	24	48	3	144
TAP	24	48	4
TTP	24	192	0	C	0	M1
XTP	25	0	0
XTP	25	0	7
XTP	25	96	1
XTP	25	96	6
XTP	25	192	2
XTP	25	192	5
XTP	25	288	3
XTP	25	288	4
TAP	26	0	5
TAP	26	96	4
TAP	26	96	6
TAP	26	192	5
TAP	26	240	5
TAP	26	288	4
TAP	27	0	2
TAP	27	96	1
TAP	27	96	3
TAP	27	192	2
TAP	27	240	2
TAP	27	288	3
HLD	28	0	5	96
TAP	28	96	4
TAP	28	192	3
TAP	28	192	6
STR	28	288	2
SCL	28	288	2	96	192	5
TAP	28	288	7
TAP	29	288	3
TAP	29	288	4
TAP	30	0	2
TAP	30	0	3
TAP	30	96	1
TAP	30	96	4
TAP	30	192	2
TAP	30	240	2
TAP	30	288	3
TAP	31	0	4
TAP	31	0	5
TAP	31	96	3
TAP	31	96	6
TAP	31	192	5
TAP	31	240	5
TAP	31	288	4
XTP	32	0	3
XTP	32	0	6
XTP	32	48	3
XTP	32	48	6
XTP	32	192	1
XTP	32	192	4
XTP	32	240	1
XTP	32	240	4
TAP	33	0	0
TAP	33	96	1
TAP	33	96	7
BRK	33	192	2
BRK	33	192	6
STR	34	0	5
SCL	34	0	5	96	192	2
TTP	35	0	1	B	0	M1
TTP	35	0	1	E	0	M1
TTP	35	192	3	B	0	M1
TTP	35	192	3	E	0	M1
STR	36	0	2
SCR	36	0	2	96	192	5
TTP	37	0	6	B	0	M1
TTP	37	0	7	E	0	M1
TTP	37	192	4	B	0	M1
TTP	37	192	5	E	0	M1
HLD	38	0	2	96
TAP	38	96	3
HLD	38	192	5	96
TAP	38	288	4
HLD	39	0	1	96
TAP	39	96	0
XTP	39	192	2
XTP	39	192	7
TAP	40	0	0
TAP	40	0	1
TAP	40	96	6
TAP	40	96	7
TAP	40	192	4
TAP	40	192	5
TAP	40	288	2
STR	40	288	3
SCL	40	288	3	96	192	0
SCR	40	288	3	96	192	6
XTP	41	336	7
TAP	42	48	0
TAP	42	48	7
TAP	42	96	0
TAP	42	96	7
TAP	42	144	0
TAP	42	144	7
BRK	42	192	1
BRK	42	192	6
TAP	43	0	4
HLD	43	0	5	96
TAP	43	96	0
HLD	43	192	2	96
TAP	43	192	7
TAP	43	288	3
TAP	44	0	5
TAP	44	48	5
TAP	44	96	4
TAP	44	192	0
XTP	44	240	7
XTP	44	288	7
XTP	44	336	7
XHO	45	0	1	144
TAP	45	96	0
TAP	45	144	0
TAP	45	240	2
TAP	45	240	3
TAP	45	288	2
TAP	45	288	3
TAP	46	0	1
TAP	46	0	5
TAP	46	96	4
TAP	46	96	5
XTP	46	192	2
XTP	46	192	6
HLD	47	0	2	96
TAP	47	0	3
TAP	47	96	7
TAP	47	192	0
HLD	47	192	5	96
TAP	47	288	4
TAP	48	0	6
TAP	48	48	6
TAP	48	96	7
STR	48	192	0
SI_	48	192	0	96	48	4
TAP	48	192	5
TAP	49	0	5
TAP	49	96	4
TAP	49	96	6
TAP	49	144	4
TAP	49	144	6
TAP	49	240	2
TAP	49	240	3
TAP	49	288	2
STR	49	288	3
SI_	49	288	3	96	96	0
SI_	49	288	3	96	96	6
XTP	50	192	1
XTP	50	192	5
HLD	51	0	2	96
TAP	51	0	3
TAP	51	96	7
TAP	51	192	0
HLD	51	192	5	96
TAP	51	288	4
TAP	52	0	2
TAP	52	48	2
TAP	52	96	3
TAP	52	192	7
XTP	52	240	0
XTP	52	288	0
XTP	52	336	0
XTP	53	0	6
TAP	53	96	6
TAP	53	96	7
TAP	53	192	4
TAP	53	192	5
TAP	53	288	2
TAP	53	288	3
TAP	54	0	1
TAP	54	0	5
TAP	54	96	4
TAP	54	96	5
XTP	54	192	2
XTP	54	192	6
STR	55	0	0
SCR	55	0	0	96	96	3
STR	55	192	4
SCR	55	192	4	96	96	7
TAP	56	0	1
TAP	56	48	1
TAP	56	96	0
TAP	56	192	2
STR	56	192	7
SI_	56	192	7	96	48	3
TAP	57	0	2
TAP	57	96	0
TAP	57	96	1
TAP	57	144	0
TAP	57	144	1
TAP	57	240	6
TAP	57	240	7
TAP	57	288	6
STR	57	288	7
SF_	57	288	7	96	192	3
HLD	59	0	2	384
HLD	59	0	3	192
TTP	60	0	4	E	0	M1
TTP	60	192	1	B	0	M1
TTP	60	192	2	B	0	M1
HLD	61	0	6	384
HLD	61	0	7	192
TTP	62	0	0	E	0	M1
TTP	62	192	4	B	0	M1
TTP	62	192	5	B	0	M1
TAP	63	0	3
HLD	63	0	6	192
TAP	63	192	4
TAP	63	288	3
HLD	64	0	2	480
TAP	64	0	5
TAP	64	192	3
TAP	64	288	4
HLD	65	0	5	96
TAP	65	192	2
TAP	65	192	5
STR	65	288	3
SCL	65	288	3	96	96	0
STR	65	288	4
SCR	65	288	4	96	96	7
BRK	66	192	1
BRK	66	192	6
STR	67	0	2
SCR	67	0	2	96	96	5
TAP	67	192	6
TAP	67	288	6
STR	68	0	5
SCL	68	0	5	96	96	2
TAP	68	192	1
TAP	68	288	1
STR	69	0	2
SCL	69	0	2	96	96	7
TAP	69	192	6
TAP	69	288	6
TAP	70	0	5
TAP	70	96	4
TAP	70	192	3
TAP	70	192	5
TAP	70	288	2
TAP	70	288	4
STR	71	0	1
SCR	71	0	1	96	96	4
STR	71	192	5
SCR	71	192	5	96	96	0
STR	72	0	1
SI_	72	0	1	96	96	5
HLD	72	192	7	192
HLD	73	0	6	96
HLD	73	96	5	96
HLD	73	192	4	96
TAP	73	288	3
HLD	74	0	2	96
HLD	74	0	3	96
BRK	74	192	1
BRK	74	192	5
TAP	75	0	2
TAP	75	96	1
TAP	75	96	3
TAP	75	192	2
TAP	75	240	2
TAP	75	288	3
TAP	76	0	5
TAP	76	48	5
TAP	76	96	4
TAP	76	192	6
STR	76	288	6
SCL	76	288	6	96	96	3
STR	76	288	7
SUL	76	288	7	96	96	2
TAP	77	192	1
STR	77	288	0
SUR	77	288	0	96	96	5
STR	77	288	1
SCR	77	288	1	96	96	4
XTP	78	192	3
XTP	78	192	6
HLD	79	0	2	96
TAP	79	0	4
TAP	79	96	3
TAP	79	192	3
HLD	79	192	5	96
TAP	79	288	4
TAP	80	0	6
TAP	80	48	6
TAP	80	96	7
TAP	80	192	1
TAP	80	240	1
TAP	80	288	0
STR	81	0	1
SI_	81	0	1	96	48	4
TAP	81	0	7
TAP	81	192	0
STR	81	192	6
SI_	81	192	6	96	48	3
XTP	82	0	3
XTP	82	0	4
XTP	82	48	3
XTP	82	48	4
XTP	82	96	3
XTP	82	96	4
BRK	82	192	1
BRK	82	192	6
STR	83	0	0
SCR	83	0	0	96	480	7
HLD	85	0	0	384
TAP	85	0	7
TTP	86	0	0	E	0	M1
TTP	86	96	0	C	0	M1
TTP	86	192	3	E	0	M1
TTP	86	192	4	E	0	M1
TTP	86	192	5	E	0	M1
HLD	87	0	6	192
HLD	87	192	4	192
HLD	88	0	3	192
TAP	88	192	1
HLD	89	0	3	96
HLD	89	0	6	96
HLD	89	192	1	96
HLD	89	192	4	96
STR	90	0	0
SF_	90	0	0	96	96	4
TAP	90	0	7
TAP	90	288	2
TAP	90	288	6
XTP	91	0	0
XTP	91	0	7
TAP	91	48	0
TAP	91	96	1
TAP	91	96	3
TAP	91	192	0
TAP	91	192	7
TAP	91	240	7
TAP	91	288	4
TAP	91	288	6
TAP	92	0	2
TAP	92	48	2
TAP	92	96	1
TAP	92	96	3
TAP	92	192	7
XTP	92	240	0
XTP	92	288	0
XTP	92	336	0
XHO	93	0	6	144
TAP	93	96	4
TAP	93	144	4
TAP	93	240	2
TAP	93	288	2
TAP	93	288	3
TAP	94	0	0
TAP	94	0	5
TAP	94	96	4
TAP	94	96	5
BRK	94	192	2
BRK	94	192	7
TAP	95	0	0
TAP	95	0	7
TAP	95	48	7
TAP	95	96	4
TAP	95	96	6
TAP	95	192	0
TAP	95	192	7
TAP	95	240	0
TAP	95	288	1
TAP	95	288	3
TAP	96	0	5
TAP	96	48	5
TAP	96	96	4
STR	96	192	0
SI_	96	192	0	96	48	4
TAP	96	192	6
TAP	97	0	5
TAP	97	96	2
TAP	97	96	4
TAP	97	144	2
TAP	97	144	4
TAP	97	240	3
TAP	97	240	6
STR	97	288	3
SF_	97	288	3	96	144	7
TAP	97	288	6
XTP	98	288	1
XTP	98	288	5
TAP	99	0	0
TAP	99	0	6
TAP	99	48	6
TAP	99	96	4
TAP	99	96	5
TAP	99	192	1
TAP	99	192	7
TAP	99	240	1
TAP	99	288	2
TAP	99	288	3
TAP	100	0	5
TAP	100	48	5
TAP	100	96	4
TAP	100	96	6
TAP	100	192	0
XTP	100	240	7
XTP	100	288	7
XTP	100	336	7
XHO	101	0	1	96
TAP	101	96	0
TAP	101	192	2
TAP	101	192	3
TAP	101	288	3
TAP	101	288	4
TTP	102	0	2	B	0	M1
TTP	102	96	4	B	0	M1
TTP	102	96	6	E	0	M1
TTP	102	192	0	C	1	M1
TTP	102	192	1	E	0	M1
TTP	102	192	2	E	0	M1
XTP	103	0	6
XTP	103	0	7
TAP	103	48	6
TAP	103	96	4
TAP	103	96	5
TAP	103	192	0
TAP	103	192	1
TAP	103	240	1
TAP	103	288	2
TAP	103	288	3
TAP	104	0	5
TAP	104	48	5
TAP	104	96	4
HLD	104	192	1	96
TAP	104	192	3
TAP	104	288	7
TTP	105	0	1	E	0	M1
TTP	105	48	2	E	0	M1
TTP	105	96	3	E	0	M1
TTP	105	96	4	B	0	M1
TTP	105	192	7	E	0	M1
TTP	105	240	6	E	0	M1
TTP	105	288	3	B	0	M1
TTP	105	288	5	E	0	M1
THO	106	0	0	768	C	1	M1
TTP	108	0	1	B	0	M1
TTP	108	0	5	B	0	M1

T_REC_TAP	298
T_REC_BRK	12
T_REC_XTP	52
T_REC_HLD	46
T_REC_XHO	7
T_REC_STR	29
T_REC_BST	0
T_REC_XST	1
T_REC_TTP	46
T_REC_THO	1
T_REC_SLD	32
T_REC_ALL	524
T_NUM_TAP	426
T_NUM_BRK	12
T_NUM_HLD	54
T_NUM_SLD	32
T_NUM_ALL	524
T_JUDGE_TAP	438
T_JUDGE_HLD	201
T_JUDGE_SLD	32
T_JUDGE_ALL	671
TTM_EACHPAIRS	136
TTM_SCR_TAP	213000
TTM_SCR_BRK	31200
TTM_SCR_HLD	54000
TTM_SCR_SLD	48000
TTM_SCR_ALL	346200
TTM_SCR_S	334650
TTM_SCR_SS	345000
TTM_RAT_ACV	10034

