VERSION	0.00.00	1.03.00
FES_MODE	0
BPM_DEF	175.000	175.000	175.000	175.000
MET_DEF	4	4
RESOLUTION	384
CLK_DEF	384
COMPATIBLE_CODE	MA2

BPM	0	0	175.000
MET	0	0	4	4

STR	2	0	0
SCR	2	0	0	96	480	5
STR	4	0	7
SCL	4	0	7	96	480	2
TAP	6	0	1
TAP	6	192	0
TAP	6	192	1
TAP	7	0	6
TAP	7	192	6
TAP	7	192	7
XTP	8	0	0
XTP	8	0	1
XTP	8	192	2
XTP	8	192	3
XST	9	0	3
SCL	9	0	3	96	192	0
XST	9	0	4
SCR	9	0	4	96	192	7
TAP	10	0	6
TAP	10	96	6
TAP	10	192	6
TAP	10	192	7
TAP	11	0	1
TAP	11	96	1
TAP	11	192	0
TAP	11	192	1
TAP	12	0	6
TAP	12	96	6
TAP	12	192	6
TAP	12	192	7
TAP	13	0	0
TAP	13	96	0
TAP	13	192	1
TAP	13	192	7
TAP	14	0	2
TAP	14	96	2
TAP	14	192	2
TAP	14	192	3
TAP	15	0	5
TAP	15	96	5
TAP	15	192	4
TAP	15	192	5
TAP	16	0	2
TAP	16	96	2
TAP	16	192	2
TAP	16	192	3
TAP	17	0	3
TAP	17	0	4
TAP	17	96	3
TAP	17	96	4
BRK	17	192	2
BRK	17	192	5
HLD	18	0	6	192
TAP	18	192	7
HLD	19	0	1	192
TAP	19	192	0
HLD	20	0	6	192
TAP	20	192	7
HLD	21	0	0	96
HLD	21	0	1	96
TAP	21	192	0
TAP	21	192	1
HLD	22	0	2	192
TAP	22	192	3
HLD	23	0	5	192
TAP	23	192	4
HLD	24	0	2	96
HLD	24	0	3	96
TAP	24	192	1
TAP	24	192	4
XTP	25	0	5
XTP	25	96	4
XTP	25	192	3
XTP	25	288	2
TAP	26	0	1
TAP	26	96	1
TAP	26	192	0
TAP	27	0	6
TAP	27	96	6
TAP	27	192	7
TAP	28	0	1
TAP	28	96	1
TAP	28	192	0
TAP	29	0	7
TAP	29	96	7
TAP	29	192	0
TAP	29	192	6
TAP	30	0	5
TAP	30	96	5
TAP	30	192	4
TAP	31	0	2
TAP	31	96	2
TAP	31	192	3
TAP	32	0	5
TAP	32	96	5
TAP	32	192	4
TAP	33	0	3
TAP	33	96	4
XTP	33	192	2
XTP	33	192	5
STR	34	0	6
SI_	34	0	6	96	192	3
STR	35	0	2
SI_	35	0	2	96	192	7
STR	36	0	6
SI_	36	0	6	96	192	3
TAP	37	0	2
TAP	37	192	2
TAP	37	192	3
TAP	38	0	1
TAP	38	96	0
TAP	38	192	0
TAP	38	192	1
TAP	39	0	6
TAP	39	96	7
TAP	39	192	6
TAP	39	192	7
TAP	40	0	0
TAP	40	96	0
TAP	40	192	7
TAP	40	288	7
STR	41	0	0
SCR	41	0	0	96	192	3
STR	41	0	7
SCL	41	0	7	96	192	4
TAP	42	0	3
TAP	42	0	4
TAP	42	96	3
TAP	42	96	4
TAP	42	192	2
TAP	42	192	5
BRK	43	0	6
TAP	43	96	6
TAP	43	192	6
TAP	43	192	7
TAP	43	288	6
TAP	43	288	7
TAP	44	0	5
TAP	44	96	4
TAP	44	192	3
TAP	44	192	5
TAP	45	0	2
TAP	45	96	2
TAP	45	192	2
TAP	45	192	3
TAP	45	288	2
TAP	45	288	3
XTP	46	0	1
XTP	46	96	0
XTP	46	96	7
XTP	46	192	1
XTP	46	192	6
TAP	47	0	1
TAP	47	96	1
TAP	47	192	0
TAP	47	192	1
TAP	47	288	0
TAP	47	288	1
TAP	48	0	2
TAP	48	96	3
TAP	48	192	2
TAP	48	192	4
TAP	49	0	1
TAP	49	96	0
TAP	49	192	7
TAP	49	288	6
STR	50	0	0
SCR	50	0	0	96	192	3
STR	50	0	7
SCL	50	0	7	96	192	4
BRK	51	0	2
TAP	51	96	2
TAP	51	192	2
TAP	51	192	3
TAP	51	288	2
TAP	51	288	3
TAP	52	0	1
TAP	52	96	0
TAP	52	192	1
TAP	52	192	7
TAP	53	0	6
TAP	53	96	6
TAP	53	192	6
TAP	53	192	7
TAP	53	288	6
TAP	53	288	7
XTP	54	0	5
XTP	54	96	3
XTP	54	96	4
XTP	54	192	2
XTP	54	192	5
TAP	55	0	5
TAP	55	96	5
TAP	55	192	4
TAP	55	192	5
TAP	55	288	4
TAP	55	288	5
TAP	56	0	6
TAP	56	96	7
TAP	56	192	0
TAP	56	192	6
TAP	57	0	1
TAP	57	96	2
TAP	57	192	3
TAP	57	288	4
STR	58	0	3
SCL	58	0	3	96	192	0
STR	58	0	4
SCR	58	0	4	96	192	7
HLD	59	0	6	384
HLD	60	0	7	384
HLD	61	0	0	384
XTP	62	0	1
HLD	63	0	2	384
HLD	64	0	3	384
HLD	65	0	4	384
TAP	66	0	5
STR	67	0	6
SI_	67	0	6	96	192	3
STR	68	0	2
SI_	68	0	2	96	192	7
STR	69	0	6
SI_	69	0	6	96	192	2
STR	70	0	1
SUR	70	0	1	96	192	5
STR	71	0	6
SUL	71	0	6	96	192	2
STR	72	0	1
SUR	72	0	1	96	192	5
TAP	73	0	6
TAP	73	96	6
TAP	73	192	6
TAP	73	192	7
TAP	74	0	0
TAP	74	0	7
TAP	74	96	0
TAP	74	96	7
BRK	74	192	1
BRK	74	192	6
TTP	75	0	6	E	0	L1
TTP	75	96	5	B	0	L1
TTP	75	192	4	B	0	L1
TTP	76	0	2	E	0	L1
TTP	76	96	2	B	0	L1
TTP	76	192	3	B	0	L1
TTP	77	0	7	E	0	L1
TTP	77	96	6	E	0	L1
TTP	77	192	5	E	0	L1
TTP	78	0	1	E	0	L1
TTP	78	96	2	E	0	L1
TTP	78	192	3	E	0	L1
TTP	79	0	6	E	0	L1
TTP	79	96	5	B	0	L1
TTP	79	192	4	B	0	L1
TTP	80	0	2	E	0	L1
TTP	80	96	2	B	0	L1
TTP	80	192	3	B	0	L1
XTP	81	0	6
XTP	81	96	5
TAP	81	192	4
TAP	81	288	3
HLD	82	0	2	192
HLD	82	0	5	192
STR	83	0	4
SCR	83	0	4	96	768	3
TAP	86	0	2
TAP	86	192	1
STR	87	0	0
SI_	87	0	0	96	192	3
STR	88	0	4
SI_	88	0	4	96	192	7
STR	89	0	0
SI_	89	0	0	96	192	3
SI_	89	0	0	96	192	5
TTP	90	0	0	C	1	L1
TAP	91	0	6
TAP	91	0	7
TAP	91	192	0
TAP	91	192	1
TAP	92	0	0
TAP	92	0	7
TAP	92	96	0
TAP	92	96	7
TAP	92	192	1
TAP	92	192	6
BRK	93	0	5
TAP	93	96	4
TAP	93	96	5
TAP	93	192	5
TAP	93	288	4
TAP	93	288	5
XTP	94	0	6
XTP	94	96	0
XTP	94	96	7
XTP	94	192	1
XTP	94	192	6
TAP	95	0	2
TAP	95	96	2
TAP	95	96	3
TAP	95	192	2
TAP	95	288	2
TAP	95	288	3
TAP	96	0	1
TAP	96	96	0
TAP	96	192	1
TAP	96	192	7
TAP	97	0	6
TAP	97	96	6
TAP	97	192	5
TAP	97	288	5
STR	98	0	3
SI_	98	0	3	96	192	0
TAP	98	0	4
HLD	99	0	7	96
HLD	99	192	0	96
HLD	99	192	1	96
TAP	100	0	0
TAP	100	0	7
TAP	100	96	0
TAP	100	96	7
TAP	100	192	1
TAP	100	192	6
TAP	101	0	5
TAP	101	96	4
TAP	101	96	5
TAP	101	192	6
TAP	101	288	6
TAP	101	288	7
XTP	102	0	0
XTP	102	96	1
XTP	102	192	2
TAP	103	0	5
TAP	103	96	4
TAP	103	96	5
TAP	103	192	2
TAP	103	288	2
TAP	103	288	3
TAP	104	0	1
TAP	104	96	0
TAP	104	96	1
TAP	104	192	2
TAP	104	192	7
TAP	105	0	6
TAP	105	96	5
TAP	105	192	4
TAP	105	288	3
STR	106	0	3
SI_	106	0	3	96	192	0
STR	106	0	4
SI_	106	0	4	96	192	7
THO	107	0	0	384	C	1	L1

T_REC_TAP	220
T_REC_BRK	7
T_REC_XTP	31
T_REC_HLD	20
T_REC_XHO	0
T_REC_STR	24
T_REC_BST	0
T_REC_XST	2
T_REC_TTP	19
T_REC_THO	1
T_REC_SLD	27
T_REC_ALL	351
T_NUM_TAP	296
T_NUM_BRK	7
T_NUM_HLD	21
T_NUM_SLD	27
T_NUM_ALL	351
T_JUDGE_TAP	303
T_JUDGE_HLD	98
T_JUDGE_SLD	27
T_JUDGE_ALL	428
TTM_EACHPAIRS	79
TTM_SCR_TAP	148000
TTM_SCR_BRK	18200
TTM_SCR_HLD	21000
TTM_SCR_SLD	40500
TTM_SCR_ALL	227700
TTM_SCR_S	220200
TTM_SCR_SS	227000
TTM_RAT_ACV	10030

