VERSION	0.00.00	1.03.00
FES_MODE	0
BPM_DEF	175.000	175.000	175.000	175.000
MET_DEF	4	4
RESOLUTION	384
CLK_DEF	384
COMPATIBLE_CODE	MA2

BPM	0	0	175.000
MET	0	0	4	4

TAP	2	0	0
TAP	4	0	0
TAP	6	0	7
BRK	8	0	7
TAP	10	0	0
TAP	11	0	0
TAP	12	0	1
TAP	13	0	1
TAP	14	0	2
TAP	15	0	2
TAP	16	0	3
TAP	17	0	3
TAP	17	0	4
HLD	18	0	4	384
HLD	20	0	5	384
HLD	22	0	6	384
HLD	24	0	0	384
HLD	24	0	7	384
TAP	26	0	7
TAP	27	0	7
TAP	28	0	6
TAP	29	0	6
TAP	30	0	5
TAP	31	0	5
TAP	32	0	4
XTP	33	0	3
XTP	33	0	4
TTP	34	0	3	B	0	L1
TTP	35	0	2	B	0	L1
TTP	36	0	1	B	0	L1
TTP	37	0	0	B	0	L1
TTP	38	0	6	B	0	L1
TTP	38	0	7	B	0	L1
TTP	39	0	0	B	0	L1
TTP	39	0	1	B	0	L1
THO	40	0	0	384	C	1	L1
TAP	43	0	0
TAP	43	192	0
TAP	44	0	1
TAP	44	192	1
TAP	45	0	2
TAP	45	192	2
XTP	46	0	3
XTP	46	0	4
TAP	47	0	4
TAP	47	192	4
TAP	48	0	5
TAP	48	192	5
TAP	49	0	6
TAP	49	192	6
XTP	50	0	0
XTP	50	0	7
TAP	51	0	7
TAP	51	192	7
TAP	52	0	6
TAP	52	192	6
TAP	53	0	5
TAP	53	192	5
XTP	54	0	3
XTP	54	0	4
TAP	55	0	3
TAP	55	192	3
TAP	56	0	2
TAP	56	192	2
TAP	57	0	1
TAP	57	192	1
TAP	58	0	0
TAP	58	0	7
STR	59	0	0
SI_	59	0	0	96	288	3
STR	61	0	7
SI_	61	0	7	96	288	4
STR	63	0	0
SI_	63	0	0	96	288	4
STR	65	0	7
SI_	65	0	7	96	288	3
TAP	67	0	0
TAP	67	192	0
TAP	68	0	1
TAP	69	0	2
TAP	69	192	2
TAP	70	0	3
TAP	71	0	4
TAP	71	192	4
TAP	72	0	5
TAP	73	0	6
TAP	73	192	6
XTP	74	0	0
XTP	74	0	7
HLD	75	0	6	384
HLD	75	0	7	384
HLD	77	0	4	384
HLD	77	0	5	384
HLD	79	0	2	384
HLD	79	0	3	384
HLD	81	0	0	384
HLD	81	0	1	384
TTP	83	0	0	B	0	L1
TTP	83	0	1	B	0	L1
TTP	84	0	2	B	0	L1
TTP	84	0	3	B	0	L1
TTP	85	0	4	B	0	L1
TTP	85	0	5	B	0	L1
TTP	86	0	6	B	0	L1
TTP	86	0	7	B	0	L1
TAP	87	0	0
TAP	88	0	0
TAP	89	0	7
BRK	90	0	0
BRK	90	0	7
TAP	91	0	7
TAP	91	192	7
TAP	92	0	6
TAP	92	96	6
TAP	92	192	6
TAP	93	0	5
TAP	93	192	5
TAP	94	0	4
TAP	94	96	4
TAP	94	192	4
TAP	95	0	3
TAP	95	192	3
TAP	96	0	2
TAP	96	96	2
TAP	96	192	2
TAP	97	0	1
TAP	97	192	1
TAP	98	0	0
TAP	98	0	7
XTP	98	192	0
XTP	98	192	7
TAP	99	0	0
TAP	99	192	0
TAP	100	0	1
TAP	100	96	1
TAP	100	192	1
TAP	101	0	2
TAP	101	192	2
TAP	102	0	3
TAP	102	96	3
BRK	102	192	3
BRK	102	192	4
TAP	103	0	4
TAP	103	192	4
TAP	104	0	5
TAP	104	96	5
TAP	104	192	5
TAP	105	0	6
TAP	105	192	6
HLD	106	0	0	768
HLD	106	0	7	768

T_REC_TAP	94
T_REC_BRK	5
T_REC_XTP	12
T_REC_HLD	15
T_REC_XHO	0
T_REC_STR	4
T_REC_BST	0
T_REC_XST	0
T_REC_TTP	16
T_REC_THO	1
T_REC_SLD	4
T_REC_ALL	151
T_NUM_TAP	126
T_NUM_BRK	5
T_NUM_HLD	16
T_NUM_SLD	4
T_NUM_ALL	151
T_JUDGE_TAP	131
T_JUDGE_HLD	144
T_JUDGE_SLD	4
T_JUDGE_ALL	279
TTM_EACHPAIRS	17
TTM_SCR_TAP	63000
TTM_SCR_BRK	13000
TTM_SCR_HLD	16000
TTM_SCR_SLD	6000
TTM_SCR_ALL	98000
TTM_SCR_S	94600
TTM_SCR_SS	97500
TTM_RAT_ACV	10051

