VERSION	0.00.00	1.03.00
FES_MODE	0
BPM_DEF	156.000	156.000	156.000	156.000
MET_DEF	4	4
RESOLUTION	384
CLK_DEF	384
COMPATIBLE_CODE	MA2

BPM	0	0	156.000
MET	0	0	4	4

STR	1	0	2
SCL	1	0	2	96	192	7
HLD	1	0	4	672
TAP	2	0	7
TAP	2	96	0
TAP	2	192	1
TAP	2	288	2
HLD	3	0	3	576
STR	3	0	4
SCR	3	0	4	96	192	7
TTP	4	0	0	E	0	M1
TTP	4	96	0	C	0	M1
TTP	4	192	4	E	0	M1
TAP	5	0	4
HLD	5	0	6	192
TAP	5	192	5
TAP	5	288	4
TAP	5	288	5
HLD	6	0	1	192
TAP	6	0	3
TAP	6	192	2
TAP	6	288	2
TAP	6	288	3
TAP	7	0	4
STR	7	0	6
SI_	7	0	6	96	48	3
STR	7	192	2
SI_	7	192	2	96	48	7
TAP	7	192	4
STR	8	0	0
SF_	8	0	0	96	96	4
TAP	8	0	7
BRK	8	288	1
BRK	8	288	5
HLD	9	0	6	144
TAP	9	96	4
TAP	9	144	4
TAP	9	240	3
TAP	9	240	5
TAP	9	288	2
TAP	9	336	4
TAP	10	0	1
TAP	10	48	5
TAP	10	96	6
TAP	10	144	7
STR	10	192	0
SI_	10	192	0	96	48	4
HLD	11	0	6	144
TAP	11	48	5
TAP	11	96	4
TAP	11	144	3
HLD	11	192	2	144
TAP	11	240	3
TAP	11	288	4
TAP	11	336	5
TAP	12	0	1
TAP	12	0	6
TAP	12	48	1
TAP	12	48	6
TAP	12	96	2
TAP	12	96	5
TAP	12	144	2
TAP	12	144	5
XST	12	192	3
SI_	12	192	3	96	48	0
XST	12	192	4
SI_	12	192	4	96	48	7
XTP	13	0	1
XTP	13	0	6
HLD	14	0	5	192
HLD	14	192	4	192
HLD	15	0	3	192
HLD	15	192	2	192
HLD	16	0	4	384
TAP	16	96	2
TAP	16	192	1
STR	16	288	0
SCL	16	288	0	96	192	4
TAP	18	0	3
TAP	18	0	5
HLD	18	96	6	96
TAP	18	192	4
TAP	18	240	4
TAP	18	288	5
TAP	19	0	2
TAP	19	0	4
HLD	19	96	1	96
TAP	19	192	3
TAP	19	240	3
TAP	19	288	2
HLD	20	0	4	288
TAP	20	0	5
TAP	20	96	5
TAP	20	192	3
TAP	20	288	3
TAP	21	0	5
TAP	21	48	3
TAP	21	96	6
TAP	21	144	2
BRK	21	192	1
BRK	21	192	7
TAP	21	288	2
TAP	21	288	6
TAP	22	0	3
HLD	22	0	5	96
TAP	22	96	4
HLD	22	192	6	96
TAP	22	240	4
TAP	22	288	3
TAP	23	0	1
HLD	23	0	5	192
TAP	23	96	2
TAP	23	192	3
TAP	23	288	4
TAP	23	288	6
HLD	24	0	6	96
HLD	24	96	4	96
HLD	24	192	3	96
HLD	24	288	1	96
HLD	25	0	7	288
TTP	25	96	0	E	0	M1
TTP	25	192	0	C	0	M1
TTP	25	288	4	E	0	M1
HLD	26	0	2	96
TAP	26	0	5
TAP	26	96	3
HLD	26	192	1	96
TAP	26	240	3
TAP	26	288	4
HLD	27	0	2	96
TAP	27	0	6
TTP	27	96	3	B	0	M1
TAP	27	192	0
HLD	27	192	5	96
TTP	27	288	4	B	0	M1
HLD	28	0	6	48
HLD	28	48	5	48
HLD	28	96	4	48
HLD	28	144	3	48
HLD	28	192	2	48
HLD	28	240	1	48
HLD	28	288	0	48
HLD	28	336	7	48
STR	29	0	6
SI_	29	0	6	96	48	2
TAP	29	96	0
STR	29	144	0
SI_	29	144	0	96	48	4
TAP	29	240	5
BRK	29	288	5
XTP	30	0	0
XTP	30	0	6
TAP	30	48	0
TAP	30	48	6
TAP	30	96	1
TAP	30	96	5
TAP	30	144	1
TAP	30	144	5
TAP	30	192	2
TAP	30	192	4
TAP	30	240	2
TAP	30	240	4
TAP	30	288	3
TAP	30	336	3
XTP	31	0	2
XTP	31	0	4
TAP	31	48	5
TAP	31	72	4
XTP	31	96	5
TAP	31	144	2
TAP	31	168	3
XTP	31	192	2
TAP	31	240	1
TAP	31	240	5
BRK	31	288	0
BRK	31	288	6
STR	32	0	6
SI_	32	0	6	96	48	3
TAP	32	96	1
STR	32	144	1
SI_	32	144	1	96	48	4
TAP	32	240	5
TAP	32	288	6
TAP	32	336	7
TAP	33	0	0
TAP	33	0	1
TAP	33	48	2
TAP	33	96	3
TAP	33	144	4
STR	33	192	3
SI_	33	192	3	96	48	0
STR	33	192	5
SI_	33	192	5	96	48	0
XTP	33	288	3
XTP	33	288	5
XST	34	0	7
SI_	34	0	7	96	48	3
TAP	34	96	0
STR	34	144	0
SI_	34	144	0	96	48	4
TAP	34	240	7
TAP	34	288	6
TAP	34	336	5
STR	35	0	4
SCL	35	0	4	96	96	0
STR	35	96	0
SCL	35	96	0	96	96	4
STR	35	192	4
SI_	35	192	4	96	48	0
XST	36	0	1
SI_	36	0	1	96	48	5
TAP	36	96	6
STR	36	144	6
SI_	36	144	6	96	48	2
TAP	36	240	2
TAP	36	288	1
TAP	36	336	0
TAP	37	0	5
TAP	37	0	7
TAP	37	48	4
TAP	37	96	3
TAP	37	144	2
STR	37	192	0
SI_	37	192	0	96	48	5
STR	37	192	1
SI_	37	192	1	96	48	5
XTP	37	288	0
XTP	37	288	1
XST	38	0	6
SI_	38	0	6	96	48	3
TAP	38	96	2
STR	38	144	2
SI_	38	144	2	96	48	7
TAP	38	240	6
TAP	38	288	5
TAP	38	336	4
XTP	39	0	2
XTP	39	0	3
TAP	39	48	2
TAP	39	48	3
XTP	39	96	1
XTP	39	96	4
TAP	39	144	1
TAP	39	144	4
TAP	39	192	5
TAP	39	216	4
TAP	39	240	5
BRK	39	288	2
BRK	39	288	7
STR	40	0	1
SI_	40	0	1	96	48	4
TAP	40	96	5
STR	40	144	5
SI_	40	144	5	96	48	0
TAP	40	240	1
TAP	40	288	2
TAP	40	336	3
TAP	41	0	4
TAP	41	0	5
TAP	41	48	6
TAP	41	96	2
TAP	41	96	7
TAP	41	144	3
STR	41	192	4
SI_	41	192	4	96	48	0
STR	41	192	5
SCR	41	192	5	96	48	0
XTP	41	288	4
XTP	41	288	5
XST	42	0	2
SI_	42	0	2	96	48	7
TAP	42	96	6
STR	42	144	6
SI_	42	144	6	96	48	3
TAP	42	240	0
TAP	42	288	1
TAP	42	336	2
STR	43	0	3
SCR	43	0	3	96	96	7
STR	43	96	7
SCR	43	96	7	96	96	3
STR	43	192	3
SI_	43	192	3	96	24	7
TTP	43	300	0	C	1	M1
STR	44	0	1
SI_	44	0	1	96	48	5
TAP	44	96	3
STR	44	144	3
SI_	44	144	3	96	48	7
TAP	44	240	7
TAP	44	288	0
TAP	44	336	1
TAP	45	0	2
TAP	45	0	3
TAP	45	48	4
TAP	45	96	5
TAP	45	144	6
XST	45	192	3
SCL	45	192	3	96	48	0
XST	45	192	7
SUR	45	192	7	96	48	4
XTP	45	288	3
XTP	45	288	7
XST	46	0	5
SI_	46	0	5	96	48	0
TAP	46	96	1
STR	46	144	1
SI_	46	144	1	96	48	4
TAP	46	240	7
TAP	46	288	6
TAP	46	336	5
STR	47	0	2
SV_	47	0	2	96	96	7
STR	47	0	4
SV_	47	0	4	96	96	7
BRK	47	288	0
BRK	47	288	6
HLD	48	0	3	192
HLD	48	192	4	192
STR	49	0	3
SCL	49	0	3	96	288	4
THO	50	0	0	288	C	1	M1
TAP	51	0	0
TAP	51	0	7
TAP	51	96	1
TAP	51	96	6
TAP	51	192	4
TAP	51	240	3
TAP	51	288	2
TAP	51	288	5
STR	52	0	1
SI_	52	0	1	96	48	4
TAP	52	0	4
TAP	52	96	6
TAP	52	192	3
STR	52	192	7
SI_	52	192	7	96	48	3
TAP	52	288	2
TAP	53	0	2
TAP	53	0	3
TAP	53	96	0
TAP	53	96	1
TAP	53	192	6
TAP	53	192	7
TAP	53	288	4
TAP	53	288	5
HLD	54	0	2	64
HLD	54	64	3	64
HLD	54	128	4	64
STR	54	192	5
SI_	54	192	5	96	48	1
TAP	55	0	2
TAP	55	24	0
TAP	55	48	1
TAP	55	96	5
TAP	55	120	7
TAP	55	144	6
TAP	55	192	0
TAP	55	240	7
TAP	55	288	2
TAP	55	336	3
TAP	56	0	6
TAP	56	24	4
TAP	56	48	5
TAP	56	96	1
TAP	56	120	3
TAP	56	144	2
TAP	56	192	4
TAP	56	240	1
TAP	56	288	0
TAP	56	288	5
XTP	57	0	6
TAP	57	24	7
TAP	57	48	6
TAP	57	72	7
XTP	57	96	5
TAP	57	120	0
TAP	57	144	5
TAP	57	168	0
XTP	57	192	4
TAP	57	216	1
TAP	57	240	4
TAP	57	264	1
XTP	57	288	3
TAP	57	312	2
TAP	57	336	3
TAP	57	360	2
XTP	58	0	4
TAP	58	24	1
TAP	58	48	5
TAP	58	72	2
XTP	58	96	6
TAP	58	120	3
TAP	58	144	7
TAP	58	168	4
BRK	58	192	0
TAP	59	0	4
TAP	59	0	5
TAP	59	48	4
TAP	59	48	5
TAP	59	96	6
TAP	59	96	7
TAP	59	144	6
TAP	59	144	7
TAP	59	192	0
TAP	59	240	6
TAP	59	288	5
TAP	59	336	4
TAP	60	0	2
TAP	60	0	3
TAP	60	48	2
TAP	60	48	3
TAP	60	96	0
TAP	60	96	1
TAP	60	144	0
TAP	60	144	1
TAP	60	192	7
TAP	60	240	1
TAP	60	288	2
TAP	60	336	3
XST	61	0	4
SCR	61	0	4	96	288	3
SUR	61	0	4	96	288	3
XTP	61	0	5
STR	63	0	4
SCL	63	0	4	96	192	1
HLD	63	0	5	192
TTP	64	0	1	E	0	M1
TTP	64	96	2	E	0	M1
TTP	64	192	5	E	0	M1
TTP	64	288	4	E	0	M1
HLD	65	0	2	192
STR	65	0	3
SCR	65	0	3	96	192	6
TTP	66	0	3	B	0	M1
TTP	66	96	4	B	0	M1
TTP	66	192	5	B	0	M1
TTP	66	288	0	B	0	M1
TTP	66	288	6	B	0	M1
STR	67	0	2
SI_	67	0	2	96	48	4
TAP	67	0	4
TAP	67	192	5
STR	67	192	6
SI_	67	192	6	96	48	2
STR	68	0	0
SI_	68	0	0	96	48	4
TAP	68	0	1
BRK	68	192	2
BRK	68	192	6
TAP	69	0	2
TAP	69	48	2
TAP	69	96	3
TAP	69	144	1
TAP	69	192	6
TAP	69	240	6
TAP	69	288	4
TAP	69	336	5
XST	70	0	3
SCL	70	0	3	96	96	7
STR	70	96	7
SCL	70	96	7	96	96	3
STR	70	192	3
SUL	70	192	3	96	96	7
STR	70	288	7
SUL	70	288	7	96	96	3
STR	71	0	3
SCL	71	0	3	96	96	7
STR	71	96	7
SCL	71	96	7	96	96	3
STR	71	192	3
SI_	71	192	3	96	96	7
TAP	71	288	7
XTP	72	0	5
TAP	72	48	5
TAP	72	96	0
TAP	72	96	6
TAP	72	144	0
TAP	72	144	6
XTP	72	192	1
TAP	72	240	1
TAP	72	288	2
TAP	72	288	4
TAP	72	336	2
TAP	72	336	4
XTP	73	0	3
TAP	73	24	5
TAP	73	48	3
TAP	73	72	5
XTP	73	96	2
TAP	73	120	6
TAP	73	144	2
TAP	73	168	6
XTP	73	192	1
TAP	73	216	7
TAP	73	240	1
TAP	73	264	7
XTP	73	288	1
XTP	73	300	2
XTP	73	312	3
XTP	73	324	4
XTP	73	336	5
XTP	73	348	6
XTP	73	360	7
XTP	73	372	0
BRK	74	0	1
STR	75	0	3
SI_	75	0	3	96	24	7
STR	75	0	4
SI_	75	0	4	96	24	0
XTP	75	96	3
XTP	75	96	4
TTP	75	108	0	C	1	M1
XTP	75	192	1
XTP	75	192	6
TAP	75	288	5
TAP	75	336	4
TAP	76	0	2
TAP	76	0	3
TAP	76	48	1
TAP	76	96	0
TAP	76	144	7
STR	76	192	0
SCR	76	192	0	96	48	3
STR	76	192	6
SI_	76	192	6	96	48	3
XTP	76	288	0
XTP	76	288	6
XST	77	0	5
SI_	77	0	5	96	48	1
TAP	77	96	0
STR	77	144	0
SI_	77	144	0	96	48	4
TAP	77	240	4
TAP	77	288	5
TAP	77	336	6
STR	78	0	7
SCR	78	0	7	96	96	3
STR	78	96	3
SCR	78	96	3	96	96	7
STR	78	192	7
SF_	78	192	7	96	48	3
XST	79	0	2
SCL	79	0	2	96	48	7
TAP	79	96	5
STR	79	144	5
SI_	79	144	5	96	48	1
TAP	79	240	1
TAP	79	288	2
TAP	79	336	3
TAP	80	0	4
TAP	80	0	5
TAP	80	48	6
TAP	80	96	0
TAP	80	144	1
STR	80	192	2
SCL	80	192	2	96	48	7
STR	80	192	3
SI_	80	192	3	96	48	7
XTP	80	288	2
XTP	80	288	3
XST	81	0	6
SCL	81	0	6	96	48	3
TAP	81	96	0
STR	81	144	0
SI_	81	144	0	96	48	4
TAP	81	240	7
TAP	81	288	6
TAP	81	336	5
XTP	82	0	2
XTP	82	0	4
TAP	82	48	0
XTP	82	96	3
XTP	82	96	5
TAP	82	144	7
TAP	82	192	1
TAP	82	216	3
TAP	82	240	0
TAP	82	264	5
BRK	82	288	7
STR	83	0	5
SCL	83	0	5	96	48	2
TAP	83	96	2
STR	83	144	1
SCL	83	144	1	96	48	6
TAP	83	240	6
TAP	83	288	5
TAP	83	336	4
TAP	84	0	0
TAP	84	0	3
TAP	84	48	1
TAP	84	96	2
TAP	84	96	4
TAP	84	144	5
STR	84	192	3
SI_	84	192	3	96	48	7
STR	84	192	6
SCL	84	192	6	96	48	3
XTP	84	288	3
XTP	84	288	6
XST	85	0	1
SCR	85	0	1	96	48	4
TAP	85	96	6
STR	85	144	5
SV_	85	144	5	96	48	0
TAP	85	240	3
TAP	85	288	2
TAP	85	336	1
STR	86	0	0
SCL	86	0	0	96	96	4
STR	86	96	4
SCL	86	96	4	96	96	0
STR	86	192	0
SF_	86	192	0	96	24	4
TTP	86	300	0	C	1	M1
XST	87	0	6
SCL	87	0	6	96	48	3
TAP	87	96	1
STR	87	144	2
SV_	87	144	2	96	48	7
TAP	87	240	7
TAP	87	288	6
TAP	87	336	5
TAP	88	0	1
TAP	88	0	4
TAP	88	48	2
TAP	88	96	3
TAP	88	144	4
STR	88	192	1
SUL	88	192	1	96	48	4
STR	88	192	5
SCR	88	192	5	96	48	0
XTP	88	288	1
XTP	88	288	5
XST	89	0	2
SV_	89	0	2	96	48	7
TAP	89	96	7
STR	89	144	6
SCL	89	144	6	96	48	3
TAP	89	240	3
TAP	89	288	2
TAP	89	336	1
XTP	90	0	0
XTP	90	0	6
TAP	90	48	0
TAP	90	48	6
XTP	90	96	1
XTP	90	96	5
TAP	90	144	1
TAP	90	144	5
XTP	90	192	4
XTP	90	204	3
XTP	90	216	2
XTP	90	228	1
XTP	90	240	0
XTP	90	252	7
XTP	90	264	6
XTP	90	276	5
XTP	90	288	4
XTP	90	300	3
XTP	90	312	2
XTP	90	324	1
XTP	90	336	0
XTP	90	348	7
XTP	90	360	6
XTP	90	372	5
XHO	91	0	0	192
BRK	91	0	4
HLD	91	192	2	192
STR	92	0	4
SCR	92	0	4	96	192	2
STR	92	288	3
SF_	92	288	3	96	384	7
XTP	93	0	3

T_REC_TAP	330
T_REC_BRK	17
T_REC_XTP	77
T_REC_HLD	43
T_REC_XHO	1
T_REC_STR	75
T_REC_BST	0
T_REC_XST	17
T_REC_TTP	20
T_REC_THO	1
T_REC_SLD	93
T_REC_ALL	674
T_NUM_TAP	519
T_NUM_BRK	17
T_NUM_HLD	45
T_NUM_SLD	93
T_NUM_ALL	674
T_JUDGE_TAP	536
T_JUDGE_HLD	151
T_JUDGE_SLD	93
T_JUDGE_ALL	780
TTM_EACHPAIRS	109
TTM_SCR_TAP	259500
TTM_SCR_BRK	44200
TTM_SCR_HLD	45000
TTM_SCR_SLD	139500
TTM_SCR_ALL	488200
TTM_SCR_S	471950
TTM_SCR_SS	486500
TTM_RAT_ACV	10034

