VERSION	0.00.00	1.03.00
FES_MODE	0
BPM_DEF	156.000	156.000	156.000	156.000
MET_DEF	4	4
RESOLUTION	384
CLK_DEF	384
COMPATIBLE_CODE	MA2

BPM	0	0	156.000
MET	0	0	4	4

HLD	1	0	1	192
HLD	1	192	2	192
STR	2	0	3
SUR	2	0	3	96	288	4
HLD	3	0	6	192
HLD	3	192	5	192
STR	4	0	4
SUL	4	0	4	96	288	3
TAP	5	0	2
TAP	5	96	3
TAP	5	192	2
TAP	5	192	3
TAP	6	0	5
TAP	6	96	4
TAP	6	192	4
TAP	6	192	5
TAP	7	0	3
TAP	7	96	3
TAP	7	192	4
TAP	7	288	4
XST	8	0	3
SCL	8	0	3	96	96	0
XST	8	0	4
SCR	8	0	4	96	96	7
HLD	9	0	6	96
TAP	9	96	7
HLD	9	192	1	96
TAP	9	288	0
HLD	10	0	6	96
TAP	10	96	7
TAP	10	192	0
TAP	10	192	5
HLD	11	0	2	96
TAP	11	96	3
HLD	11	192	5	96
TAP	11	288	4
TAP	12	0	3
TAP	12	48	3
TAP	12	96	4
XTP	12	192	2
XTP	12	192	5
TTP	13	0	0	C	1	M1
TTP	13	0	1	B	0	M1
TTP	13	0	2	B	0	M1
TTP	13	0	5	B	0	M1
TTP	13	0	6	B	0	M1
TTP	14	0	2	E	0	M1
TTP	14	192	3	E	0	M1
TTP	15	0	4	E	0	M1
TTP	16	0	6	E	0	M1
TTP	16	192	5	E	0	M1
TTP	17	0	4	E	0	M1
TAP	18	0	2
TAP	18	96	2
TAP	18	192	4
TAP	18	288	4
TAP	19	0	3
TAP	19	96	3
TAP	19	192	2
TAP	19	192	4
TAP	20	0	5
TAP	20	96	5
TAP	20	192	3
TAP	20	288	3
TAP	21	0	3
TAP	21	0	4
TAP	21	96	2
TAP	21	96	5
XTP	21	192	1
XTP	21	192	6
TAP	22	0	5
TAP	22	96	4
TAP	22	96	6
TAP	22	192	2
TAP	22	288	1
TAP	22	288	3
TAP	23	0	5
TAP	23	96	4
TAP	23	96	5
TAP	23	192	3
TAP	23	192	6
TAP	24	0	2
TAP	24	96	3
TAP	24	192	5
TAP	24	288	4
STR	25	0	3
SXR	25	0	3	96	144	2
STR	25	0	4
SXL	25	0	4	96	144	5
TAP	26	0	5
TAP	26	96	4
TAP	26	96	5
TAP	26	192	2
TAP	26	288	2
TAP	26	288	3
STR	27	0	1
SI_	27	0	1	96	96	6
STR	27	0	5
SI_	27	0	5	96	96	2
TAP	28	0	1
TAP	28	48	1
TAP	28	96	3
TAP	28	192	6
TAP	28	240	6
TAP	28	288	4
STR	29	0	3
SCL	29	0	3	96	96	0
STR	29	0	4
SCR	29	0	4	96	96	7
TAP	30	0	7
TAP	30	48	7
TAP	30	96	1
TAP	30	144	1
TAP	30	192	6
TAP	30	240	6
TAP	30	288	0
BST	31	0	1
SUR	31	0	1	96	96	5
BST	31	0	7
SUL	31	0	7	96	96	3
TAP	32	0	0
TAP	32	0	1
TAP	32	96	2
TAP	32	192	3
TAP	32	240	3
TAP	32	288	5
TAP	33	0	6
TAP	33	0	7
STR	33	96	0
SUR	33	96	0	96	96	5
STR	33	96	1
SCR	33	96	1	96	96	4
HLD	34	0	6	96
HLD	34	96	4	96
HLD	34	192	3	96
TAP	34	288	1
XTP	35	0	0
XTP	35	0	7
XTP	35	96	0
XTP	35	96	7
XTP	35	192	1
XTP	35	192	6
TAP	36	0	6
TAP	36	0	7
TAP	36	96	5
TAP	36	192	4
TAP	36	240	4
TAP	36	288	2
TAP	37	0	0
TAP	37	0	1
STR	37	96	6
SCL	37	96	6	96	96	3
STR	37	96	7
SUL	37	96	7	96	96	2
TAP	38	0	1
TAP	38	0	3
TAP	38	96	3
TAP	38	96	4
TAP	38	192	4
TAP	38	192	6
STR	38	288	0
SXL	38	288	0	96	240	3
STR	38	288	7
SXR	38	288	7	96	240	4
TAP	40	0	0
STR	40	0	1
SI_	40	0	1	96	48	4
STR	40	192	6
SI_	40	192	6	96	48	3
TAP	40	192	7
TAP	41	0	2
TAP	41	48	2
TAP	41	96	4
TAP	41	192	1
TAP	41	192	3
TAP	41	288	0
TAP	41	288	7
STR	42	0	6
SI_	42	0	6	96	48	3
TAP	42	0	7
TAP	42	192	0
STR	42	192	1
SI_	42	192	1	96	48	4
XTP	43	0	6
XTP	43	0	7
XTP	43	96	6
XTP	43	96	7
XTP	43	192	0
XTP	43	192	5
TAP	43	288	3
TAP	43	288	4
STR	44	0	0
SI_	44	0	0	96	48	4
TAP	44	0	1
TAP	44	192	6
STR	44	192	7
SI_	44	192	7	96	48	3
TAP	45	0	5
TAP	45	48	5
TAP	45	96	3
TAP	45	192	4
TAP	45	192	6
TAP	45	288	0
TAP	45	288	7
TAP	46	0	1
TAP	46	0	3
TAP	46	96	3
TAP	46	96	4
TAP	46	192	4
TAP	46	192	6
STR	46	288	0
SXL	46	288	0	96	240	3
STR	46	288	7
SXR	46	288	7	96	240	4
XST	48	0	3
SCL	48	0	3	96	576	4
XTP	48	0	4
TTP	50	0	0	C	0	M1
TAP	51	0	7
TAP	51	96	6
TAP	51	192	4
TAP	51	192	5
TAP	51	288	4
TAP	51	288	5
TAP	52	0	0
TAP	52	96	1
TAP	52	192	2
TAP	52	192	3
TAP	52	288	2
TAP	52	288	3
TTP	53	0	6	E	0	M1
TTP	53	96	5	E	0	M1
TTP	53	192	2	E	0	M1
TTP	53	288	3	E	0	M1
TTP	54	0	4	E	0	M1
TTP	54	96	0	C	0	M1
TTP	54	192	0	E	0	M1
TAP	55	0	3
TAP	55	96	2
TAP	55	192	0
TAP	55	192	1
TAP	55	288	0
TAP	55	288	1
TAP	56	0	4
TAP	56	96	5
TAP	56	192	6
TAP	56	192	7
TAP	56	288	6
TAP	56	288	7
TTP	57	0	1	E	0	M1
TTP	57	96	2	E	0	M1
TTP	57	192	7	E	0	M1
TTP	57	288	6	E	0	M1
TTP	58	0	0	E	0	M1
TTP	58	96	0	C	0	M1
TTP	58	192	4	E	0	M1
TTP	59	0	7	B	0	M1
TTP	59	96	6	B	0	M1
TTP	59	192	5	B	0	M1
TTP	59	288	4	B	0	M1
TTP	60	0	3	B	0	M1
TTP	60	96	2	B	0	M1
TTP	60	192	1	B	0	M1
TTP	60	288	0	B	0	M1
TTP	61	0	0	C	1	M1
HLD	63	0	5	384
HLD	64	0	4	384
HLD	65	0	3	384
HLD	66	0	2	384
XHO	67	0	1	192
HLD	67	192	0	192
XHO	68	0	7	192
XHO	68	192	6	192
TAP	69	0	5
TAP	69	96	4
TAP	69	96	5
TAP	69	192	2
TAP	69	288	2
TAP	69	288	3
TAP	70	0	1
TAP	70	96	1
TAP	70	192	0
TAP	70	288	0
TAP	71	0	7
TAP	71	96	7
TAP	71	192	6
TAP	71	288	6
TAP	72	0	5
TAP	72	48	5
TAP	72	96	4
TAP	72	192	2
TAP	72	240	2
TAP	72	288	3
TAP	73	0	4
TAP	73	48	4
TAP	73	96	3
TAP	73	144	3
XTP	73	192	2
XTP	73	192	5
TAP	73	288	0
TAP	73	288	7
TTP	74	0	0	C	1	M1
TTP	74	0	1	B	0	M1
TTP	74	0	2	B	0	M1
TTP	74	0	5	B	0	M1
TTP	74	0	6	B	0	M1
TAP	75	0	6
TAP	75	0	7
BRK	75	96	0
BRK	75	96	5
TAP	75	192	4
TAP	75	240	4
TAP	75	288	2
TAP	76	0	0
TAP	76	0	1
STR	76	96	6
SLL	76	96	6	96	96	2
STR	76	96	7
SV_	76	96	7	96	96	2
HLD	77	0	1	96
HLD	77	96	3	96
HLD	77	192	5	96
TAP	77	288	7
XTP	78	0	0
XTP	78	0	7
XTP	78	96	1
XTP	78	96	6
XTP	78	192	2
XTP	78	192	5
TAP	79	0	0
TAP	79	0	1
TAP	79	96	2
TAP	79	192	3
TAP	79	240	3
TAP	79	288	5
TAP	80	0	6
TAP	80	0	7
STR	80	96	0
SV_	80	96	0	96	96	5
STR	80	96	1
SLR	80	96	1	96	96	5
TAP	81	0	6
TAP	81	0	7
TAP	81	96	3
TAP	81	96	4
TAP	81	192	0
TAP	81	192	1
STR	81	288	3
SXR	81	288	3	96	240	0
STR	81	288	4
SXL	81	288	4	96	240	7
STR	83	0	6
SCL	83	0	6	96	48	3
TAP	83	0	7
TAP	83	192	0
STR	83	192	1
SCR	83	192	1	96	48	4
TAP	84	0	5
TAP	84	48	5
TAP	84	96	4
TAP	84	192	3
TAP	84	192	6
TAP	84	288	0
TAP	84	288	7
TAP	85	0	0
STR	85	0	1
SCR	85	0	1	96	48	4
STR	85	192	6
SCL	85	192	6	96	48	3
TAP	85	192	7
XTP	86	0	0
XTP	86	0	1
XTP	86	96	2
XTP	86	96	7
XTP	86	192	3
XTP	86	192	6
TAP	86	288	2
TAP	86	288	5
TAP	87	0	6
STR	87	0	7
SI_	87	0	7	96	48	3
STR	87	192	0
SI_	87	192	0	96	48	4
TAP	87	192	1
TAP	88	0	2
TAP	88	48	2
TAP	88	96	4
TAP	88	192	1
TAP	88	192	3
TAP	88	288	0
TAP	88	288	7
TAP	89	0	5
TAP	89	0	6
TAP	89	96	3
TAP	89	96	4
TAP	89	192	1
TAP	89	192	2
STR	89	288	0
SXL	89	288	0	96	240	3
STR	89	288	7
SXR	89	288	7	96	240	4
TTP	91	0	2	B	0	M1
TTP	91	0	5	B	0	M1
THO	92	0	0	384	C	1	M1

T_REC_TAP	223
T_REC_BRK	2
T_REC_XTP	31
T_REC_HLD	20
T_REC_XHO	3
T_REC_STR	36
T_REC_BST	2
T_REC_XST	3
T_REC_TTP	42
T_REC_THO	1
T_REC_SLD	41
T_REC_ALL	404
T_NUM_TAP	335
T_NUM_BRK	4
T_NUM_HLD	24
T_NUM_SLD	41
T_NUM_ALL	404
T_JUDGE_TAP	339
T_JUDGE_HLD	94
T_JUDGE_SLD	41
T_JUDGE_ALL	474
TTM_EACHPAIRS	95
TTM_SCR_TAP	167500
TTM_SCR_BRK	10400
TTM_SCR_HLD	24000
TTM_SCR_SLD	61500
TTM_SCR_ALL	263400
TTM_SCR_S	255150
TTM_SCR_SS	263000
TTM_RAT_ACV	10015

