VERSION	0.00.00	1.03.00
FES_MODE	0
BPM_DEF	156.000	156.000	156.000	156.000
MET_DEF	4	4
RESOLUTION	384
CLK_DEF	384
COMPATIBLE_CODE	MA2

BPM	0	0	156.000
MET	0	0	4	4

XHO	1	0	2	384
HLD	2	0	3	384
HLD	3	0	4	384
XTP	4	0	5
HLD	5	0	6	192
TAP	5	192	7
HLD	6	0	1	192
TAP	6	192	0
HLD	7	0	6	192
TAP	7	192	7
TAP	8	0	0
TAP	8	0	7
TAP	8	96	0
TAP	8	96	7
XTP	8	192	1
XTP	8	192	6
TAP	9	0	2
TAP	9	96	2
TAP	9	192	3
TAP	9	288	3
TAP	10	0	4
TAP	10	96	4
TAP	10	192	3
TAP	10	192	5
TAP	11	0	6
TAP	11	96	6
TAP	11	192	7
TAP	11	288	7
TAP	12	0	0
TAP	12	0	7
TAP	12	96	0
TAP	12	96	7
HLD	12	192	1	192
HLD	12	192	6	192
TTP	14	0	5	B	0	L1
TTP	15	0	4	B	0	L1
TTP	16	0	3	B	0	L1
TTP	17	0	2	B	0	L1
XHO	18	0	1	192
TAP	18	192	0
HLD	19	0	6	192
TAP	19	192	7
HLD	20	0	1	192
TAP	20	192	0
HLD	21	0	6	96
HLD	21	0	7	96
TAP	21	192	6
TAP	21	192	7
TAP	22	0	5
TAP	22	96	5
TAP	22	192	4
TAP	22	192	5
TAP	23	0	2
TAP	23	96	2
TAP	23	192	2
TAP	23	192	3
TAP	24	0	1
TAP	24	96	1
TAP	24	192	0
TAP	24	192	1
TAP	25	0	7
TAP	25	96	7
TAP	25	192	0
TAP	25	192	6
TAP	26	0	5
TAP	26	96	5
TAP	26	192	4
TAP	26	192	5
TAP	27	0	2
TAP	27	96	2
TAP	27	192	2
TAP	27	192	3
TAP	28	0	4
TAP	28	96	4
TAP	28	192	3
TAP	28	288	3
STR	29	0	3
SI_	29	0	3	96	144	1
STR	29	0	4
SI_	29	0	4	96	144	6
STR	30	0	0
SXL	30	0	0	96	480	3
STR	30	0	7
SXR	30	0	7	96	480	4
BRK	32	0	2
TAP	32	96	2
TAP	32	192	2
TAP	32	192	3
TAP	32	288	2
TAP	32	288	3
TAP	33	0	1
TAP	33	96	0
TAP	33	192	1
TAP	33	192	7
TAP	34	0	6
TAP	34	96	6
TAP	34	192	6
TAP	34	192	7
TAP	34	288	6
TAP	34	288	7
XTP	35	0	5
XTP	35	96	4
XTP	35	96	5
XTP	35	192	3
XTP	35	192	6
TAP	36	0	5
TAP	36	96	5
TAP	36	192	4
TAP	36	192	5
TAP	36	288	4
TAP	36	288	5
TAP	37	0	6
TAP	37	96	7
TAP	37	192	0
TAP	37	192	6
TAP	38	0	1
TAP	38	96	1
TAP	38	192	0
TAP	38	192	1
TAP	38	288	0
TAP	38	288	1
TAP	39	0	7
TAP	39	96	0
TAP	39	96	7
XTP	39	192	1
XTP	39	192	6
BRK	40	0	5
TAP	40	96	4
TAP	40	96	5
TAP	40	192	5
TAP	40	288	4
TAP	40	288	5
TAP	41	0	6
TAP	41	96	7
TAP	41	192	0
TAP	41	192	6
TAP	42	0	1
TAP	42	96	0
TAP	42	96	1
TAP	42	192	1
TAP	42	288	0
TAP	42	288	1
TAP	43	0	2
TAP	43	96	2
TAP	43	96	3
TAP	43	192	1
TAP	43	192	4
TAP	44	0	2
TAP	44	96	2
TAP	44	96	3
TAP	44	192	2
TAP	44	288	2
TAP	44	288	3
TAP	45	0	1
TAP	45	96	0
TAP	45	192	1
TAP	45	192	7
TAP	46	0	6
TAP	46	96	6
TAP	46	96	7
TAP	46	192	6
TAP	46	288	6
TAP	46	288	7
TAP	47	0	0
TAP	47	96	0
TAP	47	96	7
XTP	47	192	1
XTP	47	192	6
STR	48	0	6
SCL	48	0	6	96	864	7
STR	51	0	1
SI_	51	0	1	96	192	4
TAP	52	0	5
TAP	52	96	5
TAP	52	192	4
TAP	52	192	5
STR	53	0	5
SI_	53	0	5	96	192	0
TAP	54	0	1
TAP	54	96	1
TAP	54	192	0
TAP	54	192	1
STR	55	0	7
SI_	55	0	7	96	192	4
TAP	56	0	3
TAP	56	96	3
TAP	56	192	3
TAP	56	192	4
STR	57	0	3
SI_	57	0	3	96	192	0
TAP	58	0	7
TAP	58	96	7
TAP	58	192	0
TAP	58	192	7
TAP	59	0	1
TAP	59	96	1
TAP	59	192	0
TAP	59	288	0
TAP	60	0	7
TAP	60	96	7
TAP	60	192	6
TAP	60	288	6
BST	61	0	1
SLR	61	0	1	96	384	7
BST	61	0	6
SLL	61	0	6	96	384	0
TTP	63	0	0	B	0	L1
TTP	63	0	1	B	0	L1
TTP	64	0	2	B	0	L1
TTP	64	0	3	B	0	L1
TTP	65	0	4	B	0	L1
TTP	65	0	5	B	0	L1
TTP	66	0	6	B	0	L1
TTP	66	0	7	B	0	L1
TTP	67	0	0	B	0	L1
TTP	67	192	1	B	0	L1
TTP	68	0	2	B	0	L1
TTP	68	192	3	B	0	L1
TTP	69	0	4	B	0	L1
TTP	69	192	5	B	0	L1
THO	70	0	0	768	C	1	L1
XTP	73	0	0
XTP	73	96	0
XTP	73	192	7
XTP	73	288	7
HLD	74	0	1	192
HLD	74	0	6	192
TAP	75	0	2
BRK	75	96	2
BRK	75	96	3
TAP	75	192	5
TAP	75	288	4
TAP	75	288	5
TAP	76	0	6
TAP	76	96	7
TAP	76	192	0
TAP	76	192	6
TAP	77	0	5
TAP	77	96	4
TAP	77	96	5
TAP	77	192	2
TAP	77	288	2
TAP	77	288	3
XTP	78	0	1
XTP	78	96	0
XTP	78	96	1
XTP	78	192	2
XTP	78	192	7
TAP	79	0	6
TAP	79	96	6
TAP	79	96	7
TAP	79	192	1
TAP	79	288	0
TAP	79	288	1
TAP	80	0	2
TAP	80	96	3
TAP	80	192	2
TAP	80	192	4
TAP	81	0	5
TAP	81	96	4
TAP	81	96	5
TAP	81	192	2
TAP	81	288	2
TAP	81	288	3
TAP	82	0	1
TAP	82	96	0
TAP	82	96	1
XTP	82	192	0
XTP	82	192	7
TAP	83	0	6
TAP	83	96	6
TAP	83	96	7
TAP	83	192	1
TAP	83	288	0
TAP	83	288	1
TAP	84	0	2
TAP	84	96	3
TAP	84	192	2
TAP	84	192	4
TAP	85	0	1
TAP	85	96	0
TAP	85	96	1
TAP	85	192	6
TAP	85	288	6
TAP	85	288	7
XTP	86	0	5
XTP	86	96	4
XTP	86	96	5
XTP	86	192	3
XTP	86	192	6
TAP	87	0	2
TAP	87	96	2
TAP	87	96	3
TAP	87	192	5
TAP	87	288	4
TAP	87	288	5
TAP	88	0	6
TAP	88	96	7
TAP	88	192	0
TAP	88	192	6
TAP	89	0	1
TAP	89	96	0
TAP	89	96	1
TAP	89	192	6
TAP	89	288	6
TAP	89	288	7
TAP	90	0	5
TAP	90	96	3
TAP	90	96	4
XTP	90	192	2
XTP	90	192	5
STR	91	0	4
SCR	91	0	4	96	864	3

T_REC_TAP	221
T_REC_BRK	4
T_REC_XTP	30
T_REC_HLD	13
T_REC_XHO	2
T_REC_STR	10
T_REC_BST	2
T_REC_XST	0
T_REC_TTP	18
T_REC_THO	1
T_REC_SLD	12
T_REC_ALL	313
T_NUM_TAP	279
T_NUM_BRK	6
T_NUM_HLD	16
T_NUM_SLD	12
T_NUM_ALL	313
T_JUDGE_TAP	285
T_JUDGE_HLD	84
T_JUDGE_SLD	12
T_JUDGE_ALL	381
TTM_EACHPAIRS	79
TTM_SCR_TAP	139500
TTM_SCR_BRK	15600
TTM_SCR_HLD	16000
TTM_SCR_SLD	18000
TTM_SCR_ALL	189100
TTM_SCR_S	182850
TTM_SCR_SS	188500
TTM_RAT_ACV	10031

