VERSION	0.00.00	1.03.00
FES_MODE	0
BPM_DEF	156.000	156.000	156.000	156.000
MET_DEF	4	4
RESOLUTION	384
CLK_DEF	384
COMPATIBLE_CODE	MA2

BPM	0	0	156.000
MET	0	0	4	4

TAP	5	0	0
TAP	6	0	0
TAP	7	0	7
BRK	8	0	7
TAP	9	0	0
TAP	9	192	0
TAP	10	0	1
TAP	11	0	2
TAP	11	192	2
TAP	12	0	3
XTP	13	0	3
XTP	13	0	4
HLD	14	0	4	384
HLD	16	0	5	384
HLD	18	0	6	384
HLD	20	0	0	384
HLD	20	0	7	384
STR	22	0	7
SI_	22	0	7	96	288	4
STR	24	0	0
SI_	24	0	0	96	288	3
STR	26	0	7
SI_	26	0	7	96	288	3
STR	28	0	0
SI_	28	0	0	96	288	4
TAP	30	0	7
BRK	31	0	0
BRK	31	0	7
TAP	32	0	7
TAP	32	192	7
TAP	33	0	6
TAP	33	96	6
TAP	33	192	6
TAP	34	0	5
TAP	34	192	5
TAP	35	0	4
TAP	35	96	4
XTP	35	192	3
XTP	35	192	4
TAP	36	0	3
TAP	36	192	3
TAP	37	0	2
TAP	37	96	2
TAP	37	192	2
TAP	38	0	1
TAP	38	192	1
TAP	39	0	0
TAP	39	96	0
XTP	39	192	0
XTP	39	192	7
TAP	40	0	0
TAP	40	192	0
TAP	41	0	1
TAP	41	96	1
TAP	41	192	1
TAP	42	0	2
TAP	42	192	2
TAP	43	0	3
TAP	43	96	3
TAP	43	192	3
TAP	43	192	4
TAP	44	0	4
TAP	44	192	4
TAP	45	0	5
TAP	45	96	5
TAP	45	192	5
TAP	46	0	6
TAP	46	192	6
TAP	47	0	7
TAP	47	96	7
XTP	47	192	0
XTP	47	192	7
STR	48	0	0
SI_	48	0	0	96	288	3
TAP	50	0	3
TAP	50	0	4
TAP	51	0	4
TAP	51	192	4
TAP	52	0	4
TAP	52	0	5
TAP	53	0	3
TAP	53	192	3
TAP	54	0	2
TAP	54	0	3
TAP	55	0	1
TAP	55	192	1
TAP	56	0	0
TAP	56	0	1
TAP	57	0	7
TAP	57	192	7
TAP	58	0	6
TAP	58	0	7
TAP	59	0	0
TAP	59	192	0
TAP	60	0	7
TAP	60	192	7
XHO	61	0	0	384
XHO	61	0	7	384
TTP	63	0	0	B	0	L1
TTP	64	0	7	B	0	L1
TTP	65	0	1	B	0	L1
TTP	66	0	6	B	0	L1
TTP	67	0	2	B	0	L1
TTP	68	0	5	B	0	L1
TTP	69	0	2	B	0	L1
TTP	69	0	3	B	0	L1
TTP	70	0	4	B	0	L1
TTP	70	0	5	B	0	L1
THO	71	0	0	384	C	0	L1
TAP	73	0	7
TAP	73	192	7
BRK	74	0	0
BRK	74	0	7
XTP	75	0	0
TAP	75	192	0
TAP	76	0	1
TAP	76	96	1
TAP	76	192	1
TAP	77	0	2
TAP	77	192	2
TAP	78	0	3
TAP	78	96	3
TAP	78	192	3
TAP	78	192	4
TAP	79	0	4
TAP	79	192	4
TAP	80	0	5
TAP	80	96	5
TAP	80	192	5
TAP	81	0	6
TAP	81	192	6
TAP	82	0	7
TAP	82	96	7
XTP	82	192	0
XTP	82	192	7
XTP	83	0	7
TAP	83	96	7
TAP	83	192	7
TAP	84	0	6
TAP	84	96	6
TAP	84	192	6
TAP	85	0	5
TAP	85	96	5
TAP	85	192	5
TAP	86	0	3
TAP	86	0	4
TAP	86	96	3
TAP	86	96	4
BRK	86	192	3
BRK	86	192	4
TAP	87	0	3
TAP	87	96	3
TAP	87	192	3
TAP	88	0	2
TAP	88	96	2
TAP	88	192	2
TAP	89	0	1
TAP	89	96	1
TAP	89	192	1
TAP	90	0	0
TAP	90	0	7
TAP	90	96	0
TAP	90	96	7
TAP	90	192	0
TAP	90	192	7
HLD	91	0	0	768
HLD	91	0	7	768

T_REC_TAP	118
T_REC_BRK	7
T_REC_XTP	12
T_REC_HLD	7
T_REC_XHO	2
T_REC_STR	5
T_REC_BST	0
T_REC_XST	0
T_REC_TTP	10
T_REC_THO	1
T_REC_SLD	5
T_REC_ALL	167
T_NUM_TAP	145
T_NUM_BRK	7
T_NUM_HLD	10
T_NUM_SLD	5
T_NUM_ALL	167
T_JUDGE_TAP	152
T_JUDGE_HLD	96
T_JUDGE_SLD	5
T_JUDGE_ALL	253
TTM_EACHPAIRS	23
TTM_SCR_TAP	72500
TTM_SCR_BRK	18200
TTM_SCR_HLD	10000
TTM_SCR_SLD	7500
TTM_SCR_ALL	108200
TTM_SCR_S	104300
TTM_SCR_SS	107500
TTM_RAT_ACV	10065

