VERSION	0.00.00	1.03.00
FES_MODE	0
BPM_DEF	184.000	184.000	184.000	184.000
MET_DEF	4	4
RESOLUTION	384
CLK_DEF	384
COMPATIBLE_CODE	MA2

BPM	0	0	184.000
MET	0	0	4	4

TAP	1	0	2
TAP	1	0	3
TAP	1	72	4
TAP	1	72	5
HLD	1	144	2	144
TAP	1	144	3
TAP	1	240	1
TAP	1	288	1
TAP	2	0	4
TAP	2	0	6
TAP	2	72	1
TAP	2	72	3
TAP	2	144	4
HLD	2	144	6	144
TAP	2	240	7
TAP	2	288	7
TAP	3	0	0
TAP	3	0	4
TAP	3	72	3
TAP	3	72	7
HLD	3	144	0	144
TAP	3	144	4
TAP	3	240	1
TAP	3	288	1
TAP	4	0	1
TAP	4	0	5
TAP	4	72	2
TAP	4	72	6
TAP	4	144	0
TAP	4	144	4
HLD	4	192	3	144
HLD	4	192	7	144
TAP	5	0	1
TAP	5	48	7
TAP	5	96	1
TAP	5	120	0
TAP	5	144	1
TAP	5	192	6
TAP	5	240	0
TAP	5	288	6
TAP	5	312	7
TAP	5	336	6
TAP	6	0	1
TAP	6	48	7
TAP	6	96	1
TAP	6	120	0
STR	6	144	1
SCL	6	144	1	96	96	3
TTP	6	240	5	E	0	M1
TAP	7	0	5
TAP	7	48	7
TAP	7	96	5
TAP	7	120	4
TAP	7	144	5
TAP	7	192	2
TAP	7	240	0
TAP	7	288	2
TAP	7	312	3
TAP	7	336	2
TAP	8	0	2
TAP	8	0	6
TAP	8	48	1
TAP	8	48	5
TAP	8	96	0
TAP	8	96	4
TAP	8	144	3
STR	8	144	7
SCR	8	144	7	96	96	4
TTP	8	240	5	B	0	M1
TAP	9	0	6
TAP	9	48	0
TAP	9	96	6
TAP	9	120	7
TAP	9	144	6
TAP	9	192	1
TAP	9	240	7
TAP	9	288	1
TAP	9	312	0
TAP	9	336	1
TAP	10	0	6
TAP	10	48	0
TAP	10	96	6
TAP	10	120	7
STR	10	144	6
SCR	10	144	6	96	96	4
TTP	10	240	3	E	0	M1
TAP	11	0	2
TAP	11	48	0
TAP	11	96	2
TAP	11	120	3
TAP	11	144	2
TAP	11	192	5
TAP	11	240	7
TAP	11	288	5
TAP	11	312	4
TAP	11	336	5
TAP	12	0	1
TAP	12	0	5
TAP	12	48	2
TAP	12	48	6
TAP	12	96	3
TAP	12	96	7
STR	12	144	0
SCL	12	144	0	96	96	3
TAP	12	144	4
TTP	12	240	2	B	0	M1
TAP	13	0	0
TAP	13	0	1
TAP	13	144	4
TAP	13	144	6
TAP	13	288	1
TAP	13	288	4
TAP	14	48	3
TAP	14	48	7
STR	14	192	0
SCR	14	192	0	96	48	3
STR	14	192	4
SCR	14	192	4	96	48	7
HLD	15	0	2	96
HLD	15	0	6	96
HLD	15	144	1	96
HLD	15	144	5	96
HLD	15	288	3	96
HLD	15	288	7	96
HLD	16	48	0	96
HLD	16	48	4	96
TTP	16	192	0	C	0	M1
TTP	16	192	3	E	0	M1
TTP	16	192	7	E	0	M1
TAP	17	0	4
TAP	17	0	5
TAP	17	96	4
TAP	17	96	5
TAP	17	192	5
TAP	17	240	4
TAP	17	288	5
TAP	18	0	3
TAP	18	0	5
TAP	18	96	3
TAP	18	96	5
TAP	18	192	5
TAP	18	240	3
TAP	18	288	5
HLD	19	0	4	96
TAP	19	0	5
TAP	19	96	5
HLD	19	192	3	96
TAP	19	192	5
TAP	19	288	5
TAP	20	0	4
TAP	20	0	5
TAP	20	96	2
TAP	20	96	3
TAP	20	192	3
TAP	20	192	5
TAP	20	240	7
TAP	20	288	7
TAP	21	0	2
TAP	21	0	3
TAP	21	96	2
TAP	21	96	3
TAP	21	192	2
TAP	21	240	3
TAP	21	288	2
TAP	22	0	2
TAP	22	0	4
TAP	22	96	2
TAP	22	96	4
TAP	22	192	2
TAP	22	240	4
TAP	22	288	2
TAP	23	0	2
HLD	23	0	3	96
TAP	23	96	2
TAP	23	192	2
HLD	23	192	4	96
TAP	23	288	2
TAP	24	0	2
TAP	24	0	3
TAP	24	96	4
TAP	24	96	5
TAP	24	192	2
TAP	24	192	4
XTP	24	240	0
XTP	24	240	7
TAP	24	336	3
TAP	25	0	4
STR	25	48	2
SXR	25	48	2	96	144	4
TAP	25	96	2
TAP	25	144	7
TAP	25	240	6
HLD	25	288	6	96
TAP	26	0	4
STR	26	48	5
SUR	26	48	5	96	72	2
TAP	26	96	5
XTP	26	144	4
HLD	26	240	4	96
TAP	26	336	5
STR	27	0	4
SI_	27	0	4	96	48	1
HLD	27	0	5	96
TAP	27	144	6
STR	27	192	4
SI_	27	192	4	96	48	0
HLD	27	192	6	96
TAP	27	336	7
TAP	28	0	1
TAP	28	0	7
TAP	28	48	0
TAP	28	96	7
TAP	28	144	1
TAP	28	144	6
XTP	28	240	0
XTP	28	288	0
TAP	28	336	6
TAP	29	0	0
STR	29	48	7
SI_	29	48	7	96	48	3
TAP	29	96	1
TAP	29	144	4
TAP	29	240	0
HLD	29	288	0	96
TAP	30	0	3
STR	30	48	2
SCL	30	48	2	96	96	5
TAP	30	96	2
TAP	30	144	3
HLD	30	240	3	96
TAP	30	336	2
HLD	31	0	2	96
STR	31	0	3
SI_	31	0	3	96	48	6
TAP	31	144	1
HLD	31	192	1	96
STR	31	192	3
SI_	31	192	3	96	48	7
TAP	31	336	0
TAP	32	0	0
TAP	32	0	6
TAP	32	48	7
TAP	32	96	0
TAP	32	144	1
TAP	32	144	6
BRK	32	240	7
BRK	32	288	7
STR	32	336	0
SI_	32	336	0	96	48	4
TAP	33	0	4
TAP	33	48	0
STR	33	144	7
SI_	33	144	7	96	48	3
TAP	33	192	3
TAP	33	240	7
STR	33	336	1
SI_	33	336	1	96	48	5
STR	34	0	5
SI_	34	0	5	96	48	1
TAP	34	48	1
STR	34	144	6
SI_	34	144	6	96	48	2
STR	34	192	2
SI_	34	192	2	96	48	6
TAP	34	240	6
TAP	34	336	1
TAP	35	0	2
TAP	35	48	3
TAP	35	96	4
TAP	35	144	5
TTP	35	192	7	E	0	M1
TTP	35	240	6	E	0	M1
TTP	35	288	5	E	0	M1
TTP	35	336	4	E	0	M1
STR	36	0	2
SI_	36	0	2	96	48	7
STR	36	0	6
SI_	36	0	6	96	48	3
TAP	36	192	1
TAP	36	192	5
STR	36	336	0
SI_	36	336	0	96	48	4
TAP	37	0	7
TAP	37	48	0
TAP	37	48	6
STR	37	144	7
SI_	37	144	7	96	48	3
TAP	37	192	0
TAP	37	240	1
TAP	37	240	7
STR	37	336	2
SI_	37	336	2	96	48	6
TAP	38	0	3
TAP	38	48	2
TAP	38	48	4
STR	38	144	5
SI_	38	144	5	96	48	1
TAP	38	192	4
TAP	38	240	3
TAP	38	240	5
TAP	38	336	2
TAP	39	0	4
TAP	39	48	2
TAP	39	96	0
TAP	39	144	2
TAP	39	192	5
TAP	39	240	2
TAP	39	288	7
TAP	39	336	2
TAP	40	0	4
TAP	40	48	3
TAP	40	96	4
TAP	40	144	6
TAP	40	192	4
TAP	40	240	1
HLD	40	288	4	96
XST	41	0	7
SCR	41	0	7	96	48	2
TAP	41	96	6
XST	41	144	5
SCR	41	144	5	96	48	0
TAP	41	240	4
XST	41	288	3
SCR	41	288	3	96	48	6
TAP	42	0	2
XST	42	48	1
SCR	42	48	1	96	48	4
TAP	42	144	0
XTP	42	192	7
TAP	42	288	3
TAP	42	312	4
TAP	42	336	3
BST	43	0	0
SI_	43	0	0	96	48	4
TAP	43	96	1
BST	43	144	2
SI_	43	144	2	96	48	6
TAP	43	240	3
BST	43	288	4
SI_	43	288	4	96	48	0
TAP	44	0	5
BST	44	48	6
SI_	44	48	6	96	48	2
TAP	44	144	7
BST	44	192	0
SF_	44	192	0	96	48	4
TAP	45	0	1
TAP	45	0	7
TAP	45	48	6
TAP	45	72	7
TAP	45	96	5
TAP	45	144	3
TAP	45	192	2
TAP	45	192	4
TAP	45	240	1
STR	45	288	0
SCR	45	288	0	96	48	3
TAP	45	288	6
STR	46	0	0
SCL	46	0	0	96	48	5
TAP	46	0	7
STR	46	96	0
SF_	46	96	0	96	48	4
TAP	46	96	1
TAP	46	192	0
TAP	46	288	2
TAP	46	288	6
TAP	47	0	2
TAP	47	0	4
TAP	47	48	5
TAP	47	72	4
TAP	47	96	6
TAP	47	144	2
TAP	47	192	1
TAP	47	192	4
TAP	47	240	6
TAP	47	288	3
STR	47	288	7
SI_	47	288	7	96	48	3
STR	48	0	1
SI_	48	0	1	96	48	5
BRK	48	0	7
BRK	48	96	1
STR	48	96	3
SI_	48	96	3	96	48	7
TAP	48	192	0
BRK	48	192	3
TAP	48	288	1
TAP	48	288	6
TAP	49	0	0
TAP	49	0	6
TAP	49	48	1
TAP	49	72	0
TAP	49	96	2
TAP	49	144	7
TAP	49	192	3
TAP	49	192	5
TAP	49	240	0
TAP	49	288	2
STR	49	288	4
SCR	49	288	4	96	96	0
STR	50	0	0
SCR	50	0	0	96	96	4
TAP	50	96	4
TAP	50	192	0
STR	50	288	3
SUR	50	288	3	96	144	6
TAP	50	336	4
TAP	51	0	3
HLD	51	144	4	96
TAP	51	240	5
STR	51	288	5
SXL	51	288	5	96	144	0
TAP	52	0	3
HLD	52	144	1	96
BRK	52	240	7
BRK	52	288	7
TAP	53	0	0
TAP	53	0	6
TAP	53	48	1
TAP	53	72	0
TAP	53	96	2
TAP	53	144	4
TAP	53	192	3
TAP	53	192	5
TAP	53	240	6
TAP	53	288	1
STR	53	288	7
SCL	53	288	7	96	48	4
TAP	54	0	3
STR	54	0	7
SCR	54	0	7	96	48	2
STR	54	96	3
SF_	54	96	3	96	48	7
TAP	54	96	7
TAP	54	192	3
TAP	54	288	1
TAP	54	288	5
TAP	55	0	3
TAP	55	0	5
TAP	55	48	2
TAP	55	72	3
TAP	55	96	1
TAP	55	144	5
TAP	55	192	3
TAP	55	192	6
TAP	55	240	1
STR	55	288	0
SI_	55	288	0	96	48	6
TAP	55	288	4
BRK	56	0	0
STR	56	0	5
SI_	56	0	5	96	48	1
STR	56	96	2
SI_	56	96	2	96	48	4
BRK	56	96	5
BRK	56	192	2
TAP	56	192	7
TAP	56	288	0
TAP	56	288	6
TAP	57	0	1
TAP	57	0	7
TAP	57	48	6
TAP	57	72	7
TAP	57	96	5
TAP	57	144	0
TAP	57	192	2
TAP	57	192	4
TAP	57	240	7
STR	57	288	3
SCL	57	288	3	96	96	7
TAP	57	288	5
STR	58	0	7
SCL	58	0	7	96	96	3
TAP	58	96	3
TAP	58	192	7
STR	58	288	2
SCL	58	288	2	96	96	5
TAP	58	336	3
TAP	59	0	2
STR	59	96	4
SUR	59	96	4	96	120	6
TAP	59	144	4
TAP	59	240	1
STR	59	288	1
SCR	59	288	1	96	96	6
TAP	60	0	1
STR	60	96	7
SUL	60	96	7	96	120	5
TAP	60	144	7
TAP	60	240	3
TAP	60	288	3
HLD	61	0	2	48
HLD	61	0	6	48
TAP	61	96	4
TAP	61	96	5
HLD	61	192	1	48
HLD	61	192	5	48
TAP	61	288	2
TAP	61	288	3
XST	62	0	0
SV_	62	0	0	96	48	3
XST	62	0	4
SV_	62	0	4	96	48	7
XTP	62	96	0
XTP	62	96	4
BRK	62	192	2
BRK	62	192	6
TAP	62	288	3
TAP	62	288	4
HLD	63	0	3	48
HLD	63	0	7	48
TAP	63	96	4
TAP	63	96	5
HLD	63	192	0	48
HLD	63	192	4	48
TAP	63	288	2
TAP	63	288	3
XST	64	0	2
SI_	64	0	2	96	48	7
XST	64	0	6
SI_	64	0	6	96	48	3
XTP	64	96	2
XTP	64	96	6
BRK	64	192	1
BRK	64	192	5
TAP	65	0	2
TAP	65	0	3
TAP	65	72	4
TAP	65	72	5
HLD	65	144	2	144
STR	65	144	3
SI_	65	144	3	96	48	5
TAP	66	0	4
TAP	66	0	6
TAP	66	72	1
TAP	66	72	3
STR	66	144	4
SI_	66	144	4	96	48	1
HLD	66	144	6	144
TAP	67	0	0
TAP	67	0	2
TAP	67	72	5
TAP	67	72	7
HLD	67	144	0	144
STR	67	144	2
SI_	67	144	2	96	48	6
TAP	68	0	4
TAP	68	0	7
TAP	68	72	0
TAP	68	72	3
STR	68	144	4
SI_	68	144	4	96	48	0
HLD	68	144	7	144
TAP	69	0	4
TAP	69	0	5
TAP	69	72	2
TAP	69	72	3
TAP	69	144	4
STR	69	144	5
SI_	69	144	5	96	48	2
TAP	69	240	0
TAP	69	288	0
TAP	70	0	1
TAP	70	0	3
TAP	70	72	4
TAP	70	72	6
STR	70	144	1
SI_	70	144	1	96	48	5
TAP	70	144	3
TAP	70	240	7
TAP	70	288	7
TAP	71	0	5
TAP	71	0	7
TAP	71	72	0
TAP	71	72	2
TAP	71	144	5
STR	71	144	7
SI_	71	144	7	96	48	3
TAP	71	240	0
TAP	71	288	0
STR	72	0	4
SI_	72	0	4	96	48	0
TAP	72	0	5
TAP	72	96	7
TAP	72	192	2
STR	72	192	3
SI_	72	192	3	96	48	7
TAP	72	288	0
HLD	73	0	0	768
TTP	74	0	7	E	0	M1
TTP	74	96	6	E	0	M1
TTP	74	192	5	E	0	M1
HLD	75	0	7	768
TTP	76	0	1	E	0	M1
TTP	76	96	2	E	0	M1
TTP	76	192	3	E	0	M1
HLD	77	0	0	768
TTP	78	0	0	E	0	M1
TTP	78	96	0	C	0	M1
TTP	78	192	4	E	0	M1
THO	79	0	0	384	C	0	M1
TTP	80	0	1	B	0	M1
TTP	80	0	6	B	0	M1
TTP	80	192	1	E	0	M1
TTP	80	216	7	E	0	M1
TTP	80	240	3	E	0	M1
TTP	80	264	5	E	0	M1
TTP	80	288	0	C	0	M1
TAP	81	0	1
TAP	81	0	7
TAP	81	48	6
TAP	81	72	7
TAP	81	96	5
TAP	81	144	3
TAP	81	192	2
TAP	81	192	4
TAP	81	240	1
STR	81	288	0
SCR	81	288	0	96	48	3
TAP	81	288	5
STR	82	0	0
SCL	82	0	0	96	48	5
TAP	82	0	4
STR	82	96	0
SF_	82	96	0	96	48	4
TAP	82	96	4
TAP	82	192	0
TAP	82	288	2
TAP	82	288	6
TAP	83	0	2
TAP	83	0	4
TAP	83	48	5
TAP	83	72	4
TAP	83	96	6
TAP	83	144	2
TAP	83	192	1
TAP	83	192	4
TAP	83	240	6
STR	83	288	0
SI_	83	288	0	96	48	4
STR	83	288	7
SI_	83	288	7	96	48	5
BST	84	0	0
SI_	84	0	0	96	48	2
BST	84	0	7
SI_	84	0	7	96	48	3
TTP	84	12	0	C	1	M1
BST	84	96	0
SI_	84	96	0	96	48	4
BST	84	96	7
SI_	84	96	7	96	48	5
TTP	84	108	0	C	1	M1
BRK	84	192	0
BRK	84	192	7
TTP	84	204	0	C	1	M1
XTP	84	288	1
XTP	84	288	6
TAP	85	0	0
TAP	85	0	6
TAP	85	48	1
TAP	85	72	0
TAP	85	96	2
TAP	85	144	7
TAP	85	192	3
TAP	85	192	5
TAP	85	240	0
TAP	85	288	2
STR	85	288	4
SUL	85	288	4	96	96	3
STR	86	0	3
SCL	86	0	3	96	120	4
TAP	86	96	0
TAP	86	192	3
STR	86	288	3
SUR	86	288	3	96	144	6
TAP	86	336	4
TAP	87	0	3
TAP	87	96	4
HLD	87	144	4	96
TAP	87	240	5
STR	87	288	5
SXL	87	288	5	96	144	0
TAP	88	0	3
TAP	88	96	1
HLD	88	144	1	96
BRK	88	240	7
BST	88	288	7
SI_	88	288	7	96	48	2
STR	89	0	3
SI_	89	0	3	96	48	6
TAP	89	0	7
TAP	89	96	3
STR	89	96	5
SI_	89	96	5	96	48	0
STR	89	192	1
SI_	89	192	1	96	48	4
TAP	89	192	5
TAP	89	288	1
STR	89	288	7
SCL	89	288	7	96	48	4
TAP	90	0	3
STR	90	0	7
SCR	90	0	7	96	48	2
STR	90	96	3
SF_	90	96	3	96	48	7
TAP	90	96	7
TAP	90	192	3
STR	90	288	2
SI_	90	288	2	96	48	7
TAP	90	288	4
TAP	91	0	2
STR	91	0	5
SI_	91	0	5	96	48	0
STR	91	96	1
SI_	91	96	1	96	48	4
TAP	91	96	5
TAP	91	192	1
STR	91	192	7
SI_	91	192	7	96	48	2
STR	91	288	0
SI_	91	288	0	96	48	4
STR	91	288	7
SI_	91	288	7	96	48	5
BST	92	0	0
SI_	92	0	0	96	48	2
BST	92	0	7
SI_	92	0	7	96	48	3
TTP	92	12	0	C	1	M1
BST	92	96	0
SI_	92	96	0	96	48	4
BST	92	96	7
SI_	92	96	7	96	48	5
TTP	92	108	0	C	1	M1
BRK	92	192	0
BRK	92	192	7
TTP	92	204	0	C	1	M1
TAP	92	288	1
STR	92	288	7
SI_	92	288	7	96	48	4
STR	93	0	2
SI_	93	0	2	96	48	5
TAP	93	0	7
TAP	93	96	2
STR	93	96	6
SI_	93	96	6	96	48	1
STR	93	192	3
SI_	93	192	3	96	48	0
TAP	93	192	6
TAP	93	288	3
STR	93	288	7
SF_	93	288	7	96	48	3
STR	94	0	7
SCL	94	0	7	96	48	5
SCR	94	0	7	96	48	1
STR	94	96	7
SF_	94	96	7	96	48	3
TAP	94	192	7
STR	94	288	6
SCL	94	288	6	96	96	1
TAP	94	336	7
TAP	95	0	6
STR	95	96	0
SUR	95	96	0	96	120	3
TAP	95	144	0
TAP	95	240	5
STR	95	288	5
SCR	95	288	5	96	96	2
TAP	96	0	5
STR	96	96	3
SUL	96	96	3	96	120	0
TAP	96	144	3
TAP	96	240	7
TAP	96	288	7
BRK	97	0	1
BRK	97	0	5
TAP	97	48	2
TAP	97	72	3
TAP	97	96	2
TAP	97	144	7
BRK	97	192	2
BRK	97	192	6
TAP	97	240	5
TAP	97	264	4
TAP	97	288	5
TAP	97	336	0
BST	98	0	0
SCR	98	0	0	96	48	3
BST	98	0	4
SCR	98	0	4	96	48	7
BST	98	96	0
SV_	98	96	0	96	48	5
BST	98	96	4
SV_	98	96	4	96	48	1
BRK	98	192	0
BRK	98	192	4
TTP	98	204	0	C	1	M1
TAP	98	288	0
TAP	98	288	7
BRK	99	0	0
BRK	99	0	5
TAP	99	48	6
TAP	99	72	7
TAP	99	96	6
TAP	99	144	0
TAP	99	144	5
BRK	99	192	2
BRK	99	192	7
TAP	99	240	1
TAP	99	264	0
TAP	99	288	1
TAP	99	336	2
TAP	99	336	7
BST	100	0	1
SI_	100	0	1	96	48	4
BST	100	0	5
SI_	100	0	5	96	48	0
BRK	100	96	1
BRK	100	96	5
BRK	100	192	2
BRK	100	192	6
TAP	101	0	2
TAP	101	0	4
TAP	101	48	3
TAP	101	48	5
TAP	101	96	6
TAP	101	120	7
TAP	101	144	6
TAP	101	192	3
TAP	101	192	5
TAP	101	240	2
TAP	101	240	4
TAP	101	288	1
TAP	101	312	0
TAP	101	336	1
TAP	102	0	2
TAP	102	0	4
TAP	102	48	3
TAP	102	48	5
TAP	102	96	6
TAP	102	120	7
STR	102	144	6
SCL	102	144	6	96	96	1
TTP	102	240	1	B	0	M1
TAP	103	0	0
TAP	103	0	6
TAP	103	48	1
TAP	103	48	7
TAP	103	96	2
TAP	103	120	3
TAP	103	144	2
TAP	103	192	1
TAP	103	192	7
TAP	103	240	0
TAP	103	240	6
TAP	103	288	5
TAP	103	312	4
TAP	103	336	5
TAP	104	0	0
TAP	104	0	1
TAP	104	48	2
TAP	104	48	7
TAP	104	96	3
TAP	104	96	6
TAP	104	144	4
STR	104	144	5
SCR	104	144	5	96	96	2
TTP	104	240	2	B	0	M1
TAP	105	0	3
TAP	105	0	5
TAP	105	48	2
TAP	105	48	4
TAP	105	96	1
TAP	105	120	0
TAP	105	144	1
TAP	105	192	2
TAP	105	192	4
TAP	105	240	3
TAP	105	240	5
TAP	105	288	6
TAP	105	312	7
TAP	105	336	6
TAP	106	0	3
TAP	106	0	5
TAP	106	48	2
TAP	106	48	4
TAP	106	96	1
TAP	106	120	0
STR	106	144	1
SCR	106	144	1	96	96	6
TTP	106	240	6	B	0	M1
TAP	107	0	1
TAP	107	0	7
TAP	107	48	0
TAP	107	48	6
TAP	107	96	5
TAP	107	120	4
TAP	107	144	5
TAP	107	192	0
TAP	107	192	6
TAP	107	240	1
TAP	107	240	7
TAP	107	288	2
TAP	107	312	3
TAP	107	336	2
TAP	108	0	1
TAP	108	0	6
TAP	108	48	1
TAP	108	48	6
TAP	108	72	2
TAP	108	72	5
TAP	108	96	3
TAP	108	96	4
TAP	108	144	0
TAP	108	144	7
TAP	108	240	0
TAP	108	240	4
BRK	108	288	3
BRK	108	288	7
BRK	108	336	1
BRK	108	336	5

T_REC_TAP	548
T_REC_BRK	37
T_REC_XTP	12
T_REC_HLD	45
T_REC_XHO	0
T_REC_STR	92
T_REC_BST	20
T_REC_XST	8
T_REC_TTP	37
T_REC_THO	1
T_REC_SLD	121
T_REC_ALL	921
T_NUM_TAP	697
T_NUM_BRK	57
T_NUM_HLD	46
T_NUM_SLD	121
T_NUM_ALL	921
T_JUDGE_TAP	754
T_JUDGE_HLD	141
T_JUDGE_SLD	121
T_JUDGE_ALL	1016
TTM_EACHPAIRS	213
TTM_SCR_TAP	348500
TTM_SCR_BRK	148200
TTM_SCR_HLD	46000
TTM_SCR_SLD	181500
TTM_SCR_ALL	724200
TTM_SCR_S	696950
TTM_SCR_SS	718500
TTM_RAT_ACV	10079

