VERSION	0.00.00	1.03.00
FES_MODE	0
BPM_DEF	184.000	184.000	184.000	184.000
MET_DEF	4	4
RESOLUTION	384
CLK_DEF	384
COMPATIBLE_CODE	MA2

BPM	0	0	184.000
MET	0	0	4	4

STR	1	0	0
SI_	1	0	0	96	96	2
STR	1	0	7
SI_	1	0	7	96	96	5
STR	2	0	0
SI_	2	0	0	96	96	3
STR	2	0	7
SI_	2	0	7	96	96	4
STR	3	0	0
SI_	3	0	0	96	96	4
STR	3	0	7
SI_	3	0	7	96	96	3
STR	4	0	0
SI_	4	0	0	96	96	5
STR	4	0	7
SI_	4	0	7	96	96	2
TAP	5	0	2
TAP	5	96	2
TAP	5	96	3
TAP	5	192	5
TAP	5	288	4
TAP	5	288	5
HLD	6	0	2	96
TAP	6	96	3
TAP	6	144	2
TAP	6	240	1
TAP	6	240	4
TAP	7	0	5
TAP	7	96	4
TAP	7	96	5
TAP	7	192	2
TAP	7	288	2
TAP	7	288	3
HLD	8	0	5	96
TAP	8	96	4
TAP	8	144	5
TAP	8	240	3
TAP	8	240	6
TAP	9	0	2
TAP	9	48	3
TAP	9	96	2
TAP	9	192	5
TAP	9	240	4
TAP	9	288	5
HLD	10	0	2	96
TAP	10	96	3
TAP	10	144	2
TAP	10	240	1
TAP	10	240	4
TAP	11	0	5
TAP	11	48	4
TAP	11	96	5
TAP	11	192	2
TAP	11	240	3
TAP	11	288	2
HLD	12	0	5	96
TAP	12	96	4
TAP	12	144	5
TAP	12	240	3
TAP	12	240	6
TAP	13	0	6
TAP	13	0	7
TAP	13	144	6
TAP	13	144	7
STR	13	288	6
SI_	13	288	6	96	96	3
STR	13	288	7
SI_	13	288	7	96	96	3
TAP	14	192	0
TAP	14	192	5
TAP	15	0	0
TAP	15	0	1
TAP	15	144	0
TAP	15	144	1
STR	15	288	0
SI_	15	288	0	96	96	4
STR	15	288	1
SI_	15	288	1	96	96	4
BRK	16	192	2
BRK	16	192	7
TAP	17	0	5
TAP	17	96	5
TAP	17	192	3
TAP	17	288	3
TAP	18	0	4
TAP	18	96	4
TAP	18	192	2
TAP	18	288	2
TAP	19	0	5
HLD	19	96	5	96
TAP	19	192	4
HLD	19	288	4	96
TAP	20	0	3
TAP	20	96	3
TAP	20	192	2
TAP	20	192	4
TAP	21	0	2
TAP	21	96	2
TAP	21	192	4
TAP	21	288	4
TAP	22	0	3
TAP	22	96	3
TAP	22	192	5
TAP	22	288	5
TAP	23	0	2
TAP	23	96	3
TAP	23	192	5
TAP	23	288	4
TAP	24	0	2
TAP	24	96	3
TAP	24	96	4
XTP	24	192	3
XTP	24	192	4
HLD	25	0	1	72
HLD	25	72	2	72
TAP	25	144	3
TAP	25	240	4
TAP	25	288	4
HLD	26	0	6	72
HLD	26	72	5	72
TAP	26	144	4
TAP	26	240	3
TAP	26	288	3
STR	27	0	2
SI_	27	0	2	96	48	0
STR	27	192	5
SI_	27	192	5	96	48	7
TAP	28	0	0
TAP	28	96	7
TAP	28	144	7
TAP	28	240	2
TAP	28	240	5
TAP	28	288	2
TAP	28	288	5
HLD	29	0	7	72
HLD	29	72	6	72
TAP	29	144	5
TAP	29	240	4
TAP	29	288	4
HLD	30	0	0	72
HLD	30	72	1	72
TAP	30	144	2
TAP	30	240	3
TAP	30	288	3
STR	31	0	7
SCL	31	0	7	96	48	5
STR	31	192	0
SCR	31	192	0	96	48	2
TAP	32	0	4
TAP	32	96	2
TAP	32	96	5
TAP	32	144	2
TAP	32	144	5
STR	33	0	6
SI_	33	0	6	96	48	3
TAP	33	0	7
STR	33	192	1
SI_	33	192	1	96	48	4
STR	34	0	6
SI_	34	0	6	96	48	3
STR	34	192	1
SI_	34	192	1	96	48	4
TAP	35	0	5
TAP	35	96	4
TAP	35	96	5
TAP	35	192	2
TAP	35	288	2
TAP	35	288	3
TAP	36	0	3
TAP	36	0	4
TAP	36	96	2
TAP	36	96	5
TAP	36	192	1
TAP	36	192	6
TAP	37	0	0
STR	37	0	1
SI_	37	0	1	96	48	4
STR	37	192	6
SI_	37	192	6	96	48	3
STR	38	0	1
SI_	38	0	1	96	48	4
STR	38	192	6
SI_	38	192	6	96	48	3
TAP	39	0	2
TAP	39	96	2
TAP	39	192	1
TAP	39	288	1
TAP	40	0	0
TAP	40	96	0
TAP	40	192	7
TAP	40	240	7
TAP	40	288	0
XTP	41	0	1
XTP	41	0	6
TAP	41	96	5
TAP	41	144	4
TAP	41	240	2
TAP	41	288	3
TAP	42	0	5
TAP	42	48	4
TAP	42	144	2
TAP	42	192	3
TAP	42	288	1
TAP	42	288	4
XTP	43	0	0
XTP	43	0	7
TAP	43	96	6
TAP	43	144	7
TAP	43	240	1
TAP	43	288	0
TAP	44	0	6
TAP	44	48	7
TAP	44	144	1
TAP	44	192	0
XTP	44	288	2
XTP	44	288	5
BRK	45	0	6
BRK	45	0	7
TAP	45	96	5
TAP	45	144	5
TAP	45	192	4
TAP	45	288	2
TAP	45	288	3
TAP	46	0	0
TAP	46	0	1
STR	46	96	6
SI_	46	96	6	96	72	4
STR	46	96	7
SI_	46	96	7	96	72	3
TAP	47	0	0
TAP	47	0	1
TAP	47	96	2
TAP	47	144	2
TAP	47	192	4
TAP	47	288	3
TAP	47	288	5
TTP	48	0	0	E	0	M1
TTP	48	96	0	C	0	M1
TTP	48	192	4	E	0	M1
TAP	49	0	0
TAP	49	0	1
TAP	49	96	2
TAP	49	144	2
TAP	49	192	3
TAP	49	288	4
TAP	49	288	5
TAP	50	0	6
TAP	50	0	7
STR	50	96	0
SI_	50	96	0	96	72	4
STR	50	96	1
SI_	50	96	1	96	72	3
STR	51	0	6
SCL	51	0	6	96	96	3
STR	51	0	7
SUL	51	0	7	96	96	2
STR	52	0	0
SUR	52	0	0	96	96	5
STR	52	0	1
SCR	52	0	1	96	96	4
TAP	53	0	2
TAP	53	0	3
TAP	53	96	1
TAP	53	144	1
TAP	53	192	0
TAP	53	288	6
TAP	53	288	7
TAP	54	0	4
TAP	54	0	5
STR	54	96	2
SI_	54	96	2	96	72	0
STR	54	96	3
SI_	54	96	3	96	72	7
TAP	55	0	4
TAP	55	0	5
TAP	55	96	6
TAP	55	144	6
TAP	55	192	0
TAP	55	288	1
TAP	55	288	7
TTP	56	0	0	E	0	M1
TTP	56	96	0	C	0	M1
TTP	56	192	4	E	0	M1
TAP	57	0	4
TAP	57	0	5
TAP	57	96	6
TAP	57	144	6
TAP	57	192	7
TAP	57	288	0
TAP	57	288	1
TAP	58	0	2
TAP	58	0	3
STR	58	96	4
SI_	58	96	4	96	72	0
STR	58	96	5
SI_	58	96	5	96	72	7
STR	59	0	6
SCL	59	0	6	96	96	3
STR	59	0	7
SCR	59	0	7	96	96	2
STR	60	0	0
SCL	60	0	0	96	96	5
STR	60	0	1
SCR	60	0	1	96	96	4
TAP	61	0	3
TAP	61	0	6
TAP	61	192	1
TAP	61	192	4
TAP	62	0	6
TAP	62	0	7
TAP	62	96	6
TAP	62	96	7
BRK	62	192	0
BRK	62	192	5
TAP	63	0	1
TAP	63	0	4
TAP	63	192	3
TAP	63	192	6
TAP	64	0	0
TAP	64	0	1
TAP	64	96	0
TAP	64	96	1
BRK	64	192	2
BRK	64	192	7
STR	65	0	5
SXR	65	0	5	96	192	4
STR	66	0	1
SXR	66	0	1	96	192	0
STR	67	0	4
SXL	67	0	4	96	192	5
STR	68	0	0
SXL	68	0	0	96	192	1
XTP	69	0	7
XTP	69	72	6
XTP	69	144	4
XTP	69	144	5
XTP	70	0	0
XTP	70	72	1
XTP	70	144	2
XTP	70	144	3
XTP	71	0	0
XTP	71	0	7
XTP	71	72	1
XTP	71	72	6
XTP	71	144	2
XTP	71	144	5
STR	72	0	0
SSL	72	0	0	96	144	4
TAP	72	0	7
TTP	73	0	0	C	0	M1
TTP	75	0	0	B	0	M1
TTP	75	0	1	E	0	M1
TTP	76	0	3	B	0	M1
TTP	76	0	3	E	0	M1
TTP	77	0	7	B	0	M1
TTP	77	0	7	E	0	M1
TTP	78	0	4	B	0	M1
TTP	78	0	5	E	0	M1
THO	79	0	0	384	C	0	M1
XTP	80	288	0
XTP	80	288	7
STR	81	0	3
SI_	81	0	3	96	96	0
STR	81	0	4
SI_	81	0	4	96	96	7
TAP	82	0	1
TAP	82	0	6
TAP	82	96	1
TAP	82	96	6
TAP	82	192	0
TAP	82	192	7
XTP	83	0	6
XTP	83	0	7
TAP	83	96	4
TAP	83	192	0
TAP	83	192	1
TAP	83	288	3
TTP	84	0	0	E	0	M1
TTP	84	96	0	C	0	M1
TTP	84	192	4	E	0	M1
TAP	85	0	0
TAP	85	0	1
TAP	85	96	2
TAP	85	144	2
TAP	85	192	3
TAP	85	288	4
TAP	85	288	5
TAP	86	0	6
TAP	86	0	7
STR	86	96	0
SI_	86	96	0	96	72	4
STR	86	96	1
SI_	86	96	1	96	72	4
STR	87	0	5
SCL	87	0	5	96	96	2
STR	87	0	6
SUL	87	0	6	96	96	1
STR	88	0	1
SUR	88	0	1	96	96	6
STR	88	0	2
SCR	88	0	2	96	96	5
TAP	89	0	6
TAP	89	0	7
TAP	89	96	6
TAP	89	96	7
TAP	89	192	4
TAP	89	192	5
TAP	89	288	4
TAP	89	288	5
TAP	90	0	2
TAP	90	0	3
TAP	90	96	2
TAP	90	96	3
TAP	90	192	0
TAP	90	192	1
TAP	90	288	0
TAP	90	288	1
TAP	91	0	2
TAP	91	0	3
TAP	91	96	2
TAP	91	96	3
TAP	91	192	4
TAP	91	192	5
TAP	91	288	4
TAP	91	288	5
XTP	92	0	6
XTP	92	0	7
XTP	92	96	0
XTP	92	96	5
XTP	92	192	1
XTP	92	192	4
TAP	93	0	0
TAP	93	0	7
TAP	93	96	1
TAP	93	96	3
TAP	93	192	3
TAP	93	192	4
TAP	93	288	4
TAP	93	288	6
TAP	94	0	0
TAP	94	0	7
TAP	94	96	1
TAP	94	96	3
TAP	94	192	3
TAP	94	192	4
TAP	94	288	4
TAP	94	288	6
STR	95	0	3
SCL	95	0	3	96	96	0
STR	95	0	7
SCL	95	0	7	96	96	4
STR	96	0	0
SCR	96	0	0	96	96	3
STR	96	0	4
SCR	96	0	4	96	96	7
HLD	97	0	2	96
HLD	97	0	7	96
HLD	97	192	0	96
HLD	97	192	5	96
TAP	98	0	2
TAP	98	0	3
TAP	98	96	2
TAP	98	96	3
BRK	98	192	1
BRK	98	192	4
HLD	99	0	0	96
HLD	99	0	5	96
HLD	99	192	2	96
HLD	99	192	7	96
TAP	100	0	4
TAP	100	0	5
TAP	100	96	4
TAP	100	96	5
TTP	100	192	0	C	1	M1
TTP	100	192	3	B	0	M1
TTP	100	192	7	B	0	M1
XTP	101	0	1
XTP	101	48	0
XTP	101	96	1
TAP	101	192	6
TAP	101	240	7
TAP	101	288	6
HLD	102	0	1	96
TAP	102	96	0
TAP	102	144	1
TAP	102	240	2
TAP	102	240	7
TAP	103	0	6
TAP	103	48	7
TAP	103	96	6
TAP	103	192	1
TAP	103	240	0
TAP	103	288	1
HLD	104	0	6	96
TAP	104	96	7
TAP	104	144	6
TAP	104	240	0
TAP	104	240	5
TAP	105	0	1
TAP	105	0	3
TAP	105	96	0
TAP	105	96	7
TAP	105	192	4
TAP	105	192	6
TAP	105	288	0
TAP	105	288	7
TAP	106	0	1
TAP	106	0	3
TAP	106	96	0
TAP	106	96	7
TAP	106	192	4
TAP	106	192	6
TAP	106	288	0
TAP	106	288	7
TAP	107	0	2
TAP	107	0	3
TAP	107	96	0
TAP	107	96	7
TAP	107	192	4
TAP	107	192	5
TAP	107	288	0
TAP	107	288	7
HLD	108	0	2	96
TAP	108	96	3
TAP	108	144	2
TAP	108	240	0
TAP	108	240	7
TAP	108	288	0
TAP	108	288	7
XTP	108	336	1
XTP	108	336	6

T_REC_TAP	323
T_REC_BRK	10
T_REC_XTP	37
T_REC_HLD	25
T_REC_XHO	0
T_REC_STR	57
T_REC_BST	0
T_REC_XST	0
T_REC_TTP	21
T_REC_THO	1
T_REC_SLD	57
T_REC_ALL	531
T_NUM_TAP	438
T_NUM_BRK	10
T_NUM_HLD	26
T_NUM_SLD	57
T_NUM_ALL	531
T_JUDGE_TAP	448
T_JUDGE_HLD	58
T_JUDGE_SLD	57
T_JUDGE_ALL	563
TTM_EACHPAIRS	142
TTM_SCR_TAP	219000
TTM_SCR_BRK	26000
TTM_SCR_HLD	26000
TTM_SCR_SLD	85500
TTM_SCR_ALL	356500
TTM_SCR_S	344850
TTM_SCR_SS	355500
TTM_RAT_ACV	10028

