VERSION	0.00.00	1.03.00
FES_MODE	0
BPM_DEF	184.000	184.000	184.000	184.000
MET_DEF	4	4
RESOLUTION	384
CLK_DEF	384
COMPATIBLE_CODE	MA2

BPM	0	0	184.000
MET	0	0	4	4

XTP	1	0	3
XTP	1	0	4
XTP	2	0	2
XTP	2	0	5
XTP	3	0	1
XTP	3	0	6
XHO	4	0	0	192
XHO	4	0	7	192
TAP	5	0	1
TAP	5	96	1
TAP	5	192	0
TAP	5	288	0
TAP	6	0	7
TAP	6	96	7
TAP	6	192	0
TAP	6	192	6
TAP	7	0	5
TAP	7	96	5
TAP	7	192	4
TAP	7	288	4
TAP	8	0	3
TAP	8	96	4
TAP	8	192	2
TAP	8	192	5
TAP	9	0	6
TAP	9	96	6
TAP	9	192	7
TAP	9	288	7
TAP	10	0	0
TAP	10	96	0
TAP	10	192	1
TAP	10	192	7
TAP	11	0	2
TAP	11	96	2
TAP	11	192	3
TAP	11	288	3
TAP	12	0	3
TAP	12	0	4
TAP	12	96	3
TAP	12	96	4
TAP	12	192	2
TAP	12	192	5
STR	13	0	1
SUR	13	0	1	96	432	4
STR	15	0	5
SCR	15	0	5	96	432	2
HLD	17	0	1	192
TAP	17	192	0
HLD	18	0	6	192
TAP	18	192	7
HLD	19	0	1	192
TAP	19	192	0
TAP	20	0	7
TAP	20	96	7
TAP	20	192	0
TAP	20	192	6
HLD	21	0	5	192
TAP	21	192	4
HLD	22	0	2	192
TAP	22	192	3
HLD	23	0	5	192
TAP	23	192	4
TAP	24	0	3
TAP	24	96	4
TAP	24	192	2
TAP	24	192	5
TAP	25	0	1
TAP	25	96	1
TAP	25	192	0
TAP	26	0	6
TAP	26	96	6
TAP	26	192	7
TAP	27	0	1
TAP	27	96	1
TAP	27	192	0
TAP	28	0	7
TAP	28	96	7
TAP	28	192	0
TAP	28	192	6
TAP	29	0	5
TAP	29	96	5
TAP	29	192	4
TAP	30	0	2
TAP	30	96	2
TAP	30	192	3
TAP	31	0	5
TAP	31	96	5
TAP	31	192	4
TAP	32	0	3
TAP	32	0	4
TAP	32	96	3
TAP	32	96	4
BRK	32	192	2
BRK	32	192	5
HLD	33	0	6	192
HLD	33	192	7	192
HLD	34	0	0	192
XTP	34	192	1
TAP	35	0	2
TAP	35	96	2
TAP	35	192	3
TAP	35	288	3
XTP	36	0	4
XTP	36	96	4
XTP	36	192	3
XTP	36	192	5
HLD	37	0	2	192
HLD	37	192	3	192
HLD	38	0	4	192
XTP	38	192	5
TAP	39	0	6
TAP	39	96	6
TAP	39	192	7
TAP	39	288	7
TAP	40	0	0
TAP	40	96	0
TAP	40	192	1
TAP	40	192	6
STR	41	0	7
SI_	41	0	7	96	144	4
STR	42	0	3
SI_	42	0	3	96	144	0
STR	43	0	7
SI_	43	0	7	96	192	4
TAP	44	0	3
XTP	44	192	2
XTP	44	192	5
BRK	45	0	1
TAP	45	96	1
TAP	45	192	0
TAP	45	192	1
TAP	45	288	0
TAP	45	288	1
TAP	46	0	2
TAP	46	96	3
TAP	46	192	2
TAP	46	192	4
TAP	47	0	5
TAP	47	96	5
TAP	47	192	4
TAP	47	192	5
TAP	47	288	4
TAP	47	288	5
XTP	48	0	6
XTP	48	96	0
XTP	48	96	7
XTP	48	192	0
XTP	48	192	7
TAP	49	0	6
TAP	49	96	6
TAP	49	192	6
TAP	49	192	7
TAP	49	288	6
TAP	49	288	7
TAP	50	0	5
TAP	50	96	4
TAP	50	192	3
TAP	50	192	5
TAP	51	0	2
TAP	51	96	2
TAP	51	192	2
TAP	51	192	3
TAP	52	0	5
TAP	52	96	5
TAP	52	192	4
TAP	52	192	6
BRK	53	0	5
TAP	53	96	5
TAP	53	192	4
TAP	53	192	5
TAP	53	288	4
TAP	53	288	5
TAP	54	0	6
TAP	54	96	7
TAP	54	192	0
TAP	54	192	6
TAP	55	0	1
TAP	55	96	1
TAP	55	192	0
TAP	55	192	1
TAP	55	288	0
TAP	55	288	1
XTP	56	0	2
XTP	56	96	3
XTP	56	96	4
XTP	56	192	3
XTP	56	192	4
TAP	57	0	2
TAP	57	96	2
TAP	57	192	2
TAP	57	192	3
TAP	57	288	2
TAP	57	288	3
TAP	58	0	1
TAP	58	96	0
TAP	58	192	1
TAP	58	192	7
TAP	59	0	6
TAP	59	96	6
TAP	59	192	6
TAP	59	192	7
TAP	60	0	0
TAP	60	0	7
TAP	60	96	0
TAP	60	96	7
TAP	60	192	1
TAP	60	192	6
XTP	61	0	0
XTP	61	0	1
XTP	61	192	6
XTP	61	192	7
TAP	62	0	0
TAP	62	0	7
TAP	62	96	0
TAP	62	96	7
TAP	62	192	1
TAP	62	192	6
XTP	63	0	2
XTP	63	0	3
XTP	63	192	4
XTP	63	192	5
TAP	64	0	3
TAP	64	0	4
TAP	64	96	3
TAP	64	96	4
BRK	64	192	2
BRK	64	192	5
STR	65	0	3
SI_	65	0	3	96	144	0
STR	66	0	7
SI_	66	0	7	96	144	4
STR	67	0	3
SI_	67	0	3	96	144	0
TAP	68	0	7
TAP	68	192	1
TAP	68	192	6
STR	69	0	5
SI_	69	0	5	96	144	2
STR	70	0	1
SI_	70	0	1	96	144	6
STR	71	0	5
SI_	71	0	5	96	144	2
TAP	72	0	1
XTP	72	192	0
XTP	72	192	7
TTP	73	0	0	B	0	L1
TTP	74	0	1	B	0	L1
TTP	75	0	2	B	0	L1
TTP	76	0	3	B	0	L1
TTP	77	0	4	B	0	L1
TTP	78	0	5	B	0	L1
TTP	79	0	6	B	0	L1
TTP	80	0	7	B	0	L1
TTP	81	0	1	E	0	L1
TTP	81	0	7	E	0	L1
TTP	81	192	1	B	0	L1
TTP	81	192	6	B	0	L1
TTP	82	0	0	C	0	L1
BRK	83	0	6
TAP	83	96	6
TAP	83	96	7
TAP	83	192	6
TAP	83	288	6
TAP	83	288	7
XTP	84	0	5
XTP	84	96	3
XTP	84	96	4
XTP	84	192	3
XTP	84	192	4
TAP	85	0	5
TAP	85	96	4
TAP	85	96	5
TAP	85	192	5
TAP	85	288	4
TAP	85	288	5
TAP	86	0	6
TAP	86	96	7
TAP	86	192	0
TAP	86	192	6
TAP	87	0	1
TAP	87	96	1
TAP	87	192	0
TAP	87	192	1
TAP	88	0	0
TAP	88	0	7
TAP	88	96	0
TAP	88	96	7
TAP	88	192	1
TAP	88	192	6
BRK	89	0	2
TAP	89	96	2
TAP	89	96	3
TAP	89	192	2
TAP	89	288	2
TAP	89	288	3
TAP	90	0	1
TAP	90	96	0
TAP	90	192	1
TAP	90	192	7
TAP	91	0	6
TAP	91	96	6
TAP	91	96	7
TAP	91	192	6
TAP	91	288	6
TAP	91	288	7
XTP	92	0	5
XTP	92	96	4
XTP	92	192	3
XTP	92	192	4
TAP	93	0	5
TAP	93	96	4
TAP	93	96	5
TAP	93	192	5
TAP	93	288	4
TAP	93	288	5
TAP	94	0	6
TAP	94	96	7
TAP	94	192	0
TAP	94	192	6
TAP	95	0	5
TAP	95	96	5
TAP	95	192	4
TAP	95	288	4
TAP	96	0	3
TAP	96	0	4
TAP	96	96	3
TAP	96	96	4
TAP	96	192	2
TAP	96	192	5
XTP	97	0	6
XTP	97	0	7
XTP	97	192	0
XTP	97	192	1
TAP	98	0	0
TAP	98	0	7
TAP	98	96	0
TAP	98	96	7
TAP	98	192	1
TAP	98	192	6
XTP	99	0	4
XTP	99	0	5
XTP	99	192	2
XTP	99	192	3
TAP	100	0	3
TAP	100	0	4
TAP	100	96	3
TAP	100	96	4
BRK	100	192	2
BRK	100	192	5
TAP	101	0	6
TAP	101	96	6
TAP	101	192	7
TAP	101	288	7
TAP	102	0	0
TAP	102	96	0
TAP	102	192	1
TAP	102	192	7
TAP	103	0	2
TAP	103	96	2
TAP	103	192	3
TAP	103	288	3
TAP	104	0	4
TAP	104	96	4
TAP	104	192	3
TAP	104	192	4
TAP	105	0	5
TAP	105	96	5
TAP	105	192	4
TAP	105	288	4
TAP	106	0	3
TAP	106	96	3
TAP	106	192	2
TAP	106	192	4
TAP	107	0	1
TAP	107	96	1
TAP	107	192	0
TAP	107	288	0
XTP	108	0	0
XTP	108	0	7
XTP	108	96	1
XTP	108	96	6
XTP	108	192	2
XTP	108	192	5
BRK	108	288	3
BRK	108	288	4

T_REC_TAP	267
T_REC_BRK	12
T_REC_XTP	57
T_REC_HLD	12
T_REC_XHO	2
T_REC_STR	11
T_REC_BST	0
T_REC_XST	0
T_REC_TTP	13
T_REC_THO	0
T_REC_SLD	11
T_REC_ALL	385
T_NUM_TAP	348
T_NUM_BRK	12
T_NUM_HLD	14
T_NUM_SLD	11
T_NUM_ALL	385
T_JUDGE_TAP	360
T_JUDGE_HLD	56
T_JUDGE_SLD	11
T_JUDGE_ALL	427
TTM_EACHPAIRS	97
TTM_SCR_TAP	174000
TTM_SCR_BRK	31200
TTM_SCR_HLD	14000
TTM_SCR_SLD	16500
TTM_SCR_ALL	235700
TTM_SCR_S	227500
TTM_SCR_SS	234500
TTM_RAT_ACV	10051

