VERSION	0.00.00	1.03.00
FES_MODE	0
BPM_DEF	184.000	184.000	184.000	184.000
MET_DEF	4	4
RESOLUTION	384
CLK_DEF	384
COMPATIBLE_CODE	MA2

BPM	0	0	184.000
MET	0	0	4	4

TAP	5	0	0
TAP	6	0	0
TAP	7	0	0
TAP	9	0	7
TAP	10	0	7
TAP	11	0	7
XHO	13	0	0	432
XHO	15	0	7	432
TAP	17	0	0
TAP	18	0	0
TAP	19	0	1
TAP	20	0	1
TAP	21	0	2
TAP	22	0	2
TAP	23	0	3
XTP	24	0	3
XTP	24	0	4
TAP	25	0	4
TAP	25	192	4
TAP	26	0	4
TAP	27	0	5
TAP	27	192	5
TAP	28	0	5
TAP	29	0	6
TAP	29	192	6
TAP	30	0	6
TAP	31	0	7
TAP	31	192	7
TAP	32	0	0
TAP	32	0	7
STR	33	0	0
SI_	33	0	0	96	288	3
STR	35	0	4
SI_	35	0	4	96	288	7
STR	37	0	0
SI_	37	0	0	96	288	3
STR	39	0	4
SI_	39	0	4	96	288	7
XHO	41	0	0	384
XHO	43	0	7	384
XTP	45	0	7
TAP	45	192	7
TAP	46	0	6
TAP	46	96	6
TAP	46	192	6
TAP	47	0	5
TAP	47	192	5
TAP	48	0	4
TAP	48	96	4
TAP	48	192	4
TAP	49	0	3
TAP	49	192	3
TAP	50	0	2
TAP	50	96	2
TAP	50	192	2
TAP	51	0	1
TAP	51	192	1
XTP	52	0	0
XTP	52	0	7
XTP	52	192	0
XTP	52	192	7
TAP	53	0	0
TAP	53	192	0
TAP	54	0	1
TAP	54	96	1
TAP	54	192	1
TAP	55	0	2
TAP	55	192	2
TAP	56	0	3
TAP	56	96	3
TAP	56	192	3
TAP	56	192	4
TAP	57	0	4
TAP	57	192	4
TAP	58	0	5
TAP	58	96	5
TAP	58	192	5
TAP	59	0	6
TAP	59	192	6
BRK	60	0	0
BRK	60	0	7
XHO	61	0	0	384
XHO	61	0	1	384
XHO	63	0	6	384
XHO	63	0	7	384
STR	65	0	0
SI_	65	0	0	96	288	4
STR	67	0	7
SI_	67	0	7	96	288	3
STR	69	0	1
SI_	69	0	1	96	288	4
STR	71	0	6
SI_	71	0	6	96	288	3
TTP	73	0	2	B	0	L1
TTP	74	0	1	B	0	L1
TTP	75	0	0	B	0	L1
TTP	76	0	7	B	0	L1
TTP	77	0	6	B	0	L1
TTP	78	0	5	B	0	L1
THO	79	0	0	384	C	0	L1
TAP	81	0	7
TAP	81	192	7
TAP	82	0	7
XTP	82	192	0
XTP	82	192	7
TAP	83	0	0
TAP	83	96	0
TAP	83	192	0
TAP	84	0	1
TAP	84	96	1
TAP	84	192	1
TAP	85	0	2
TAP	85	96	2
TAP	85	192	2
TAP	86	0	3
TAP	86	96	3
TAP	86	192	3
TAP	86	192	4
HLD	87	0	3	192
HLD	87	0	4	192
XTP	88	0	3
XTP	88	0	4
XTP	88	192	3
XTP	88	192	4
TAP	89	0	4
TAP	89	96	4
TAP	89	192	4
TAP	90	0	5
TAP	90	96	5
TAP	90	192	5
TAP	91	0	6
TAP	91	96	6
TAP	91	192	6
TAP	92	0	7
TAP	92	96	7
BRK	92	192	0
BRK	92	192	7
TAP	93	0	1
TAP	93	192	0
TAP	93	192	1
TAP	94	0	7
TAP	94	192	6
TAP	94	192	7
TAP	95	0	0
TAP	95	192	0
TAP	95	192	7
TAP	96	0	0
TAP	96	0	7
TAP	96	96	0
TAP	96	96	7
XTP	96	192	0
XTP	96	192	7
XHO	97	0	0	192
XHO	97	0	1	192
XTP	98	0	0
XTP	98	0	1
XHO	99	0	6	192
XHO	99	0	7	192
XTP	100	0	6
XTP	100	0	7
TAP	101	0	7
TAP	101	192	7
TAP	102	0	6
TAP	102	96	6
TAP	102	192	6
TAP	103	0	5
TAP	103	192	5
TAP	104	0	4
TAP	104	96	3
TAP	104	192	4
TAP	105	0	3
TAP	105	192	3
TAP	106	0	2
TAP	106	96	2
TAP	106	192	2
TAP	107	0	1
TAP	107	192	1
TAP	108	0	0
TAP	108	96	0
TAP	108	192	0
XTP	108	288	0
XTP	108	288	7

T_REC_TAP	120
T_REC_BRK	4
T_REC_XTP	21
T_REC_HLD	2
T_REC_XHO	12
T_REC_STR	8
T_REC_BST	0
T_REC_XST	0
T_REC_TTP	6
T_REC_THO	1
T_REC_SLD	8
T_REC_ALL	182
T_NUM_TAP	155
T_NUM_BRK	4
T_NUM_HLD	15
T_NUM_SLD	8
T_NUM_ALL	182
T_JUDGE_TAP	159
T_JUDGE_HLD	98
T_JUDGE_SLD	8
T_JUDGE_ALL	265
TTM_EACHPAIRS	25
TTM_SCR_TAP	77500
TTM_SCR_BRK	10400
TTM_SCR_HLD	15000
TTM_SCR_SLD	12000
TTM_SCR_ALL	114900
TTM_SCR_S	111100
TTM_SCR_SS	114500
TTM_RAT_ACV	10034

