VERSION	0.00.00	1.03.00
FES_MODE	0
BPM_DEF	145.000	145.000	145.000	145.000
MET_DEF	4	4
RESOLUTION	384
CLK_DEF	384
COMPATIBLE_CODE	MA2

BPM	0	0	145.000
MET	0	0	4	4

HLD	1	0	3	264
TAP	1	0	4
TAP	1	96	4
HLD	1	192	4	144
TAP	2	48	3
HLD	2	96	3	168
TAP	2	144	4
HLD	2	192	4	72
HLD	3	0	2	96
HLD	3	96	3	96
HLD	3	192	4	96
HLD	3	288	5	192
TAP	4	0	4
TAP	4	96	3
STR	4	192	2
SI_	4	192	2	96	48	4
HLD	4	192	4	96
TAP	5	0	6
TAP	5	96	5
TAP	5	192	4
TAP	5	192	5
TAP	5	264	3
TAP	5	264	4
TAP	5	336	2
TAP	5	336	3
TAP	6	0	1
TAP	6	48	1
TAP	6	96	3
TAP	6	144	2
TTP	6	192	0	B	0	M1
TTP	6	192	0	E	0	M1
TTP	6	192	7	B	0	M1
TTP	6	288	3	B	0	M1
TTP	6	288	4	B	0	M1
TTP	6	288	4	E	0	M1
TAP	7	0	1
TAP	7	0	6
TAP	7	96	2
TAP	7	192	2
TAP	7	192	3
TAP	7	264	3
TAP	7	264	4
TAP	7	336	4
TAP	7	336	5
TAP	8	0	6
TAP	8	48	6
TAP	8	96	4
TAP	8	144	4
TTP	8	192	5	E	0	M1
TTP	8	240	4	E	0	M1
TTP	8	288	7	E	0	M1
TTP	8	336	0	E	0	M1
HLD	9	0	5	96
HLD	9	96	4	96
TAP	9	192	5
TAP	9	264	3
TAP	9	264	4
TAP	9	336	2
TAP	9	336	3
TAP	10	0	1
TAP	10	48	1
TAP	10	96	3
TAP	10	144	2
TTP	10	192	4	E	0	M1
TTP	10	240	3	E	0	M1
TTP	10	288	0	C	0	M1
TTP	10	336	1	B	0	M1
HLD	11	0	6	72
HLD	11	72	5	72
TAP	11	144	4
HLD	11	192	1	72
HLD	11	264	2	72
TAP	11	336	3
STR	12	0	3
SV_	12	0	3	96	48	1
STR	12	96	6
SI_	12	96	6	96	48	4
XTP	12	192	2
TTP	12	288	0	C	0	M1
TAP	13	0	5
HLD	13	48	5	48
TAP	13	96	4
TAP	13	144	6
TAP	13	192	4
HLD	13	240	4	48
TAP	13	288	6
TAP	13	336	4
STR	14	0	7
SV_	14	0	7	96	48	2
TAP	14	48	7
STR	14	96	4
SV_	14	96	4	96	48	1
TAP	14	144	4
STR	14	192	6
SV_	14	192	6	96	48	3
TAP	14	240	6
TAP	14	288	2
TAP	14	336	1
TAP	15	0	0
HLD	15	48	0	48
TAP	15	96	3
TAP	15	144	1
TAP	15	192	3
HLD	15	240	3	48
TAP	15	288	1
TAP	15	336	3
STR	16	0	2
SI_	16	0	2	96	48	7
TAP	16	48	2
STR	16	96	6
SSL	16	96	6	96	144	2
TAP	16	144	6
XTP	16	192	0
XTP	16	240	0
XTP	16	288	0
XTP	16	336	0
TAP	17	0	1
HLD	17	48	1	48
TAP	17	96	0
TAP	17	144	2
TAP	17	192	0
HLD	17	240	0	48
TAP	17	288	2
TAP	17	336	0
STR	18	0	3
SV_	18	0	3	96	48	1
TAP	18	48	3
STR	18	96	6
SV_	18	96	6	96	48	4
TAP	18	144	6
XTP	18	192	2
XTP	18	240	2
XTP	18	288	2
XTP	18	336	2
STR	19	0	1
SI_	19	0	1	96	48	3
TAP	19	48	1
TAP	19	96	3
TAP	19	144	4
STR	19	192	5
SV_	19	192	5	96	48	3
TAP	19	240	5
TAP	19	288	2
TAP	19	336	1
STR	20	0	1
SV_	20	0	1	96	48	4
TAP	20	48	4
STR	20	96	6
SI_	20	96	6	96	48	3
TAP	20	144	7
TAP	20	192	3
TAP	20	288	2
TAP	20	288	4
HLD	21	0	3	384
TTP	21	288	4	E	0	M1
TTP	21	336	3	E	0	M1
HLD	22	0	5	384
TTP	22	288	2	B	0	M1
TTP	22	288	3	B	0	M1
HLD	23	0	4	288
TTP	23	240	6	E	0	M1
TTP	23	288	5	E	0	M1
XTP	24	0	2
XTP	24	0	4
XTP	24	96	4
XTP	24	96	6
TAP	24	192	3
STR	24	192	7
SI_	24	192	7	96	48	3
BRK	24	288	0
TAP	25	0	2
TAP	25	24	4
TAP	25	48	1
TAP	25	72	5
STR	25	96	0
SI_	25	96	0	96	48	4
TAP	25	120	6
TAP	25	144	0
TAP	25	168	7
XTP	25	192	0
XTP	25	240	5
XTP	25	288	3
XTP	25	288	6
TAP	26	0	2
TAP	26	24	4
TAP	26	48	1
TAP	26	72	5
STR	26	96	0
SI_	26	96	0	96	48	4
TAP	26	120	6
TAP	26	144	0
TAP	26	168	7
XTP	26	192	0
XTP	26	240	5
XTP	26	288	3
XTP	26	288	6
TAP	27	0	6
TAP	27	24	4
TAP	27	72	2
TAP	27	96	3
TAP	27	144	1
TAP	27	144	4
HLD	27	192	5	48
HLD	27	240	7	48
HLD	27	288	0	48
TAP	27	336	2
TAP	28	0	5
TAP	28	24	4
STR	28	48	6
SI_	28	48	6	96	48	3
TAP	28	72	3
STR	28	96	7
SI_	28	96	7	96	48	2
TAP	28	120	2
TAP	28	144	6
TAP	28	192	7
XTP	28	240	6
BRK	28	288	1
BRK	28	288	7
TAP	29	0	2
TAP	29	24	3
TAP	29	48	1
TAP	29	72	4
STR	29	96	0
SI_	29	96	0	96	48	4
TAP	29	120	5
TAP	29	144	7
TAP	29	168	6
XTP	29	192	0
XTP	29	240	5
XTP	29	288	2
XHO	29	288	6	96
STR	30	0	3
SCL	30	0	3	96	48	0
STR	30	48	6
SCL	30	48	6	96	48	3
TAP	30	96	3
TAP	30	144	6
XTP	30	192	0
TTP	30	240	4	B	0	M1
TTP	30	240	5	B	0	M1
TTP	30	288	1	B	0	M1
TTP	30	288	2	B	0	M1
STR	31	0	7
SI_	31	0	7	96	48	1
TAP	31	48	7
STR	31	96	2
SI_	31	96	2	96	48	4
TAP	31	144	2
STR	31	192	5
SI_	31	192	5	96	48	7
TAP	31	240	5
TAP	31	288	0
TAP	31	336	1
XTP	32	0	2
XTP	32	0	7
TAP	32	48	5
TAP	32	72	4
TAP	32	120	2
TAP	32	144	3
TAP	32	192	0
TAP	32	216	7
TAP	32	240	0
BRK	32	288	1
BRK	32	288	6
TAP	33	0	2
TAP	33	24	3
TAP	33	48	2
TAP	33	72	3
STR	33	96	2
SV_	33	96	2	96	48	7
TAP	33	144	4
BRK	33	192	2
XTP	33	192	5
XTP	33	288	2
XTP	33	288	6
XTP	33	336	2
XTP	33	336	6
TAP	34	0	7
TAP	34	24	1
TAP	34	48	7
TAP	34	72	1
STR	34	96	7
SCL	34	96	7	96	48	4
TAP	34	144	2
XTP	34	192	3
BRK	34	192	7
XTP	34	288	1
XTP	34	288	5
XTP	34	336	1
XTP	34	336	5
TAP	35	0	6
TAP	35	24	7
TAP	35	48	6
TAP	35	72	7
STR	35	96	6
SI_	35	96	6	96	48	1
TAP	35	144	5
TAP	35	192	4
BRK	35	192	6
TAP	35	288	0
HLD	36	0	4	48
HLD	36	0	6	48
HLD	36	96	1	48
HLD	36	96	3	48
TAP	36	192	3
TAP	36	192	4
TTP	36	240	5	E	0	M1
TTP	36	240	6	E	0	M1
TTP	36	288	1	E	0	M1
TTP	36	288	2	E	0	M1
TAP	37	0	5
TAP	37	24	4
TAP	37	48	6
TAP	37	72	3
STR	37	96	7
SI_	37	96	7	96	48	3
TAP	37	120	2
TAP	37	144	0
TAP	37	168	1
TAP	37	192	7
TAP	37	288	2
TAP	37	288	4
TAP	37	336	3
TAP	37	336	5
TAP	38	0	4
TAP	38	0	6
TAP	38	48	5
TAP	38	72	4
TAP	38	120	2
TAP	38	144	3
TAP	38	192	1
TAP	38	192	5
BRK	38	240	0
BRK	38	240	6
BRK	38	288	1
BRK	38	288	7
TAP	39	0	6
TAP	39	24	4
TAP	39	48	6
TAP	39	72	4
TAP	39	96	5
TAP	39	120	3
TAP	39	144	5
TAP	39	168	3
TAP	39	192	4
TAP	39	216	2
TAP	39	240	5
TAP	39	264	1
STR	39	288	6
SI_	39	288	6	96	48	3
STR	40	0	2
SI_	40	0	2	96	48	6
XTP	40	0	6
XTP	40	96	2
STR	40	96	4
SI_	40	96	4	96	48	0
STR	40	192	1
SI_	40	192	1	96	48	5
XTP	40	192	4
XTP	40	288	1
STR	40	288	7
SXL	40	288	7	96	384	2
SXR	40	288	7	96	384	4
BRK	41	0	7
XTP	42	336	5
XTP	43	0	4
HLD	43	0	6	144
XTP	43	144	2
HLD	43	192	1	144
XTP	43	192	3
XTP	43	336	5
XTP	44	0	4
TAP	44	0	6
XTP	44	48	1
TAP	44	96	0
XTP	44	96	3
XTP	44	144	6
XTP	44	192	4
HLD	44	192	7	96
TTP	44	288	0	C	0	M1
STR	45	0	0
SI_	45	0	0	96	48	4
TAP	45	96	5
TAP	45	144	6
XST	45	192	5
SI_	45	192	5	96	48	1
XST	45	192	7
SI_	45	192	7	96	48	3
TAP	45	288	5
TAP	45	288	7
XST	46	0	0
SCR	46	0	0	96	48	3
TAP	46	48	0
STR	46	96	4
SCR	46	96	4	96	48	7
TAP	46	144	4
TAP	46	192	0
TAP	46	240	0
TAP	46	288	1
TAP	46	336	2
TAP	46	336	7
TAP	47	0	3
STR	47	0	6
SI_	47	0	6	96	48	2
TAP	47	48	3
TAP	47	96	2
TAP	47	144	1
STR	47	192	1
SI_	47	192	1	96	48	5
TAP	47	192	4
TAP	47	240	4
TAP	47	288	5
TAP	47	336	6
STR	48	0	4
SI_	48	0	4	96	48	0
TAP	48	0	7
TAP	48	48	4
STR	48	96	6
SI_	48	96	6	96	48	2
TAP	48	144	6
TAP	48	192	1
XTP	48	240	1
XTP	48	288	0
XTP	48	288	1
XST	49	0	7
SI_	49	0	7	96	48	3
TAP	49	96	2
TAP	49	144	1
XST	49	192	0
SI_	49	192	0	96	48	4
XST	49	192	2
SI_	49	192	2	96	48	6
TAP	49	288	0
TAP	49	288	2
XST	50	0	7
SCL	50	0	7	96	48	4
TAP	50	48	7
STR	50	96	2
SCL	50	96	2	96	48	7
TAP	50	144	2
STR	50	192	4
SCR	50	192	4	96	48	7
TAP	50	240	4
TAP	50	288	1
TAP	50	336	1
XST	51	0	0
SI_	51	0	0	96	48	4
TAP	51	48	0
TAP	51	96	2
TAP	51	144	1
STR	51	192	0
SI_	51	192	0	96	48	4
TAP	51	240	0
TAP	51	288	5
TAP	51	336	6
STR	52	0	7
SI_	52	0	7	96	48	3
TAP	52	48	7
TAP	52	96	1
TAP	52	144	0
STR	52	192	7
SI_	52	192	7	96	48	3
TAP	52	240	7
TAP	52	288	4
TAP	52	336	5
XTP	53	0	3
TAP	53	0	6
TAP	53	48	2
TAP	53	96	1
STR	53	96	4
SCL	53	96	4	96	96	0
TAP	53	144	5
TAP	53	192	6
TAP	53	240	6
TAP	53	288	7
TAP	53	336	7
TAP	54	0	0
TAP	54	48	1
TAP	54	96	2
STR	54	96	7
SCR	54	96	7	96	96	4
TAP	54	144	6
HLD	54	192	5	192
THO	55	0	0	384	C	0	M1
TTP	55	0	3	B	0	M1
TTP	55	0	4	B	0	M1
HLD	56	0	7	960
STR	57	0	3
SCL	57	0	3	96	144	0
HLD	58	0	0	576
THO	59	0	0	384	C	0	M1
TTP	59	0	3	B	0	M1
TTP	59	0	4	B	0	M1
STR	60	0	0
SCR	60	0	0	96	144	3
TTP	61	0	4	E	0	M1
TTP	61	96	0	C	0	M1
TTP	61	192	0	E	0	M1
TTP	61	288	2	E	0	M1
TTP	61	288	6	E	0	M1
TTP	62	0	0	C	1	M1
XTP	62	192	0
XTP	62	192	7
TAP	63	0	5
TAP	63	24	5
TAP	63	48	4
HLD	63	72	6	48
TAP	63	120	0
TAP	63	168	0
TAP	63	216	3
TAP	63	216	4
TAP	63	240	3
TAP	63	240	4
STR	63	288	1
SCR	63	288	1	96	192	6
TAP	63	288	6
TAP	63	336	0
TAP	63	336	7
STR	64	192	7
SUL	64	192	7	96	48	3
SUR	64	192	7	96	48	4
XTP	64	288	7
XTP	65	0	2
XTP	65	0	5
TAP	65	48	1
TAP	65	72	0
TAP	65	120	6
TAP	65	144	7
STR	65	192	3
SI_	65	192	3	96	48	0
STR	65	192	4
SI_	65	192	4	96	48	7
TAP	65	240	2
TAP	65	240	5
XTP	66	0	1
XTP	66	0	6
TAP	66	48	2
TAP	66	72	3
TAP	66	96	2
TAP	66	144	5
TAP	66	168	4
TAP	66	192	6
TAP	66	240	1
TAP	66	264	3
TAP	66	288	2
TAP	66	336	1
TAP	66	336	5
TAP	67	0	6
TAP	67	24	7
STR	67	48	5
SI_	67	48	5	96	48	0
TAP	67	72	0
STR	67	96	4
SI_	67	96	4	96	48	1
TAP	67	120	1
TAP	67	144	5
TAP	67	192	4
XTP	67	240	6
XTP	67	288	3
XTP	67	288	7
TAP	68	0	1
TAP	68	24	0
TAP	68	48	2
TAP	68	72	7
STR	68	96	3
SI_	68	96	3	96	48	7
TAP	68	120	6
TAP	68	144	4
TAP	68	168	5
TAP	68	192	3
XTP	68	240	4
XTP	68	288	0
XHO	68	288	6	96
STR	69	0	3
SCL	69	0	3	96	48	0
STR	69	48	6
SV_	69	48	6	96	48	3
TAP	69	96	3
TAP	69	144	6
XTP	69	192	0
TTP	69	240	4	B	0	M1
TTP	69	240	5	B	0	M1
TTP	69	240	5	E	0	M1
TTP	69	288	1	B	0	M1
TTP	69	288	2	B	0	M1
TTP	69	288	2	E	0	M1
STR	70	0	6
SCR	70	0	6	96	48	1
TAP	70	48	6
STR	70	96	3
SI_	70	96	3	96	48	7
TAP	70	144	3
STR	70	192	4
SI_	70	192	4	96	48	0
TAP	70	240	4
TAP	70	288	3
TAP	70	336	2
TAP	71	0	1
TAP	71	0	7
TAP	71	48	5
TAP	71	72	4
TAP	71	120	2
TAP	71	144	3
TAP	71	192	6
TAP	71	216	7
TAP	71	240	6
BRK	71	288	1
BRK	71	288	5
STR	72	0	0
SI_	72	0	0	96	48	4
TAP	72	24	4
TAP	72	48	0
TAP	72	72	4
STR	72	96	0
SCL	72	96	0	96	48	5
SCR	72	96	0	96	48	3
BRK	72	192	0
XTP	72	288	2
XTP	72	288	6
STR	73	0	7
SI_	73	0	7	96	48	3
TAP	73	24	3
TAP	73	48	7
TAP	73	72	3
STR	73	96	7
SCL	73	96	7	96	48	4
SCR	73	96	7	96	48	2
BRK	73	192	7
XTP	73	288	1
XTP	73	288	5
STR	74	0	0
SI_	74	0	0	96	48	4
TAP	74	24	4
TAP	74	48	0
TAP	74	72	4
STR	74	96	0
SF_	74	96	0	96	48	4
BRK	74	192	0
XTP	74	288	2
XTP	74	288	6
TAP	75	0	5
TAP	75	24	4
TAP	75	72	1
TAP	75	96	0
TAP	75	144	6
TAP	75	168	7
TAP	75	192	5
BRK	75	240	0
BRK	75	240	4
BRK	75	288	2
BRK	75	288	6
TAP	76	0	1
TAP	76	24	0
TAP	76	48	2
TAP	76	72	7
STR	76	96	3
SI_	76	96	3	96	48	7
TAP	76	120	6
TAP	76	144	4
TAP	76	168	5
TAP	76	192	3
XTP	76	288	0
XTP	76	288	6
TAP	76	336	1
TAP	76	336	5
TAP	77	0	2
TAP	77	0	4
TAP	77	48	1
TAP	77	72	3
TAP	77	120	6
TAP	77	144	4
TAP	77	192	0
TAP	77	192	5
BRK	77	240	2
BRK	77	240	7
BRK	77	288	0
BRK	77	288	5
TAP	78	0	1
TAP	78	24	3
TAP	78	48	2
TAP	78	72	4
TAP	78	96	3
TAP	78	120	5
TAP	78	144	4
TAP	78	168	6
TAP	78	192	0
TAP	78	216	7
TAP	78	240	0
TAP	78	264	7
STR	78	288	0
SI_	78	288	0	96	48	4
XTP	79	0	0
STR	79	0	5
SCR	79	0	5	96	48	0
STR	79	96	1
SCR	79	96	1	96	48	4
XTP	79	96	5
XTP	79	192	1
STR	79	192	6
SI_	79	192	6	96	48	2
STR	79	288	3
SI_	79	288	3	96	48	7
BRK	79	288	6
XTP	80	0	3
STR	80	0	5
SCR	80	0	5	96	48	0
STR	80	96	1
SI_	80	96	1	96	48	5
XTP	80	96	5
XTP	80	192	1
STR	80	192	6
SI_	80	192	6	96	48	2
STR	80	288	0
SI_	80	288	0	96	48	4
BRK	80	288	6
BRK	81	0	0
STR	81	0	5
SCR	81	0	5	96	48	0
STR	81	96	3
SI_	81	96	3	96	48	7
BRK	81	96	5
BRK	81	192	3
STR	81	192	6
SI_	81	192	6	96	48	2
BST	81	288	0
SXL	81	288	0	96	480	3
SXR	81	288	0	96	480	5
BRK	81	288	6
BRK	82	0	0
HLD	84	0	2	96
HLD	84	96	3	96
TAP	84	192	2
TAP	84	264	3
TAP	84	264	4
TAP	84	336	4
HLD	84	336	5	96
TAP	85	48	4
TAP	85	96	4
TAP	85	144	3
TAP	85	192	2
STR	85	192	5
SI_	85	192	5	96	48	1

T_REC_TAP	351
T_REC_BRK	33
T_REC_XTP	83
T_REC_HLD	41
T_REC_XHO	2
T_REC_STR	81
T_REC_BST	1
T_REC_XST	8
T_REC_TTP	46
T_REC_THO	2
T_REC_SLD	95
T_REC_ALL	743
T_NUM_TAP	569
T_NUM_BRK	34
T_NUM_HLD	45
T_NUM_SLD	95
T_NUM_ALL	743
T_JUDGE_TAP	603
T_JUDGE_HLD	145
T_JUDGE_SLD	95
T_JUDGE_ALL	843
TTM_EACHPAIRS	99
TTM_SCR_TAP	284500
TTM_SCR_BRK	88400
TTM_SCR_HLD	45000
TTM_SCR_SLD	142500
TTM_SCR_ALL	560400
TTM_SCR_S	540300
TTM_SCR_SS	557000
TTM_RAT_ACV	10061

