VERSION	0.00.00	1.03.00
FES_MODE	0
BPM_DEF	145.000	145.000	145.000	145.000
MET_DEF	4	4
RESOLUTION	384
CLK_DEF	384
COMPATIBLE_CODE	MA2

BPM	0	0	145.000
MET	0	0	4	4

STR	1	0	1
SXL	1	0	1	96	432	4
STR	3	0	5
SCR	3	0	5	96	144	0
TAP	4	0	1
TAP	4	96	1
TAP	4	192	0
TAP	4	192	7
TAP	5	0	1
TAP	5	96	1
TAP	5	192	0
TAP	5	192	1
TAP	6	0	6
TAP	6	96	6
XTP	6	192	6
XTP	6	192	7
TAP	7	0	1
TAP	7	96	1
TAP	7	192	0
TAP	7	192	1
TAP	8	0	7
TAP	8	96	7
XTP	8	192	0
XTP	8	192	6
TAP	9	0	5
TAP	9	96	5
TAP	9	192	4
TAP	9	192	5
TAP	10	0	2
TAP	10	96	2
XTP	10	192	2
XTP	10	192	3
TAP	11	0	5
TAP	11	96	5
TAP	11	192	4
TAP	11	192	5
TAP	12	0	3
TAP	12	96	3
TAP	12	192	2
TAP	12	192	4
HLD	13	0	1	96
TAP	13	96	0
TAP	13	192	0
HLD	14	0	6	96
TAP	14	96	7
XTP	14	192	7
HLD	15	0	1	96
TAP	15	96	0
TAP	15	192	0
HLD	16	0	6	96
HLD	16	0	7	96
XTP	16	192	6
XTP	16	192	7
HLD	17	0	5	96
TAP	17	96	4
TAP	17	192	4
HLD	18	0	2	96
TAP	18	96	3
XTP	18	192	3
HLD	19	0	5	96
TAP	19	96	4
TAP	19	192	4
HLD	20	0	2	96
HLD	20	0	3	96
XTP	20	192	2
XTP	20	192	3
TTP	21	0	1	B	0	L1
TTP	21	192	0	B	0	L1
TTP	22	0	7	B	0	L1
TTP	22	192	6	B	0	L1
TTP	23	0	5	B	0	L1
TTP	23	192	4	B	0	L1
XTP	24	0	2
XTP	24	192	2
XTP	24	192	3
BRK	25	0	1
TAP	25	96	1
TAP	25	192	0
TAP	25	192	1
TAP	25	288	0
TAP	25	288	1
BRK	26	0	6
TAP	26	96	6
TAP	26	192	6
TAP	26	192	7
TAP	26	288	6
TAP	26	288	7
TAP	27	0	5
TAP	27	96	5
TAP	27	192	4
TAP	27	288	4
TAP	28	0	3
TAP	28	96	3
TAP	28	192	2
TAP	28	192	4
BRK	29	0	5
TAP	29	96	5
TAP	29	192	4
TAP	29	192	5
TAP	29	288	4
TAP	29	288	5
BRK	30	0	2
TAP	30	96	2
TAP	30	192	2
TAP	30	192	3
TAP	30	288	2
TAP	30	288	3
TAP	31	0	1
TAP	31	96	1
TAP	31	192	0
TAP	31	288	0
TAP	32	0	0
TAP	32	0	7
TAP	32	96	0
TAP	32	96	7
XTP	32	192	1
XTP	32	192	6
TAP	33	0	0
TAP	33	0	1
TAP	33	96	0
TAP	33	96	1
HLD	33	192	0	96
HLD	33	192	1	96
TAP	34	0	6
TAP	34	0	7
TAP	34	96	6
TAP	34	96	7
HLD	34	192	6	96
HLD	34	192	7	96
TAP	35	0	4
TAP	35	0	5
TAP	35	96	4
TAP	35	96	5
HLD	35	192	4	96
HLD	35	192	5	96
TAP	36	0	2
TAP	36	0	3
TAP	36	96	2
TAP	36	96	3
TAP	36	192	1
TAP	36	192	4
BRK	37	0	1
TAP	37	96	1
TAP	37	192	0
TAP	37	192	1
TAP	37	288	0
TAP	37	288	1
TAP	38	0	2
TAP	38	96	3
TAP	38	192	2
TAP	38	192	4
TAP	39	0	5
TAP	39	96	5
TAP	39	192	6
TAP	39	288	6
XTP	40	0	0
XTP	40	0	7
XTP	40	96	1
XTP	40	96	6
XTP	40	192	2
XTP	40	192	5
XTP	40	288	3
XTP	40	288	4
BST	41	0	3
SCL	41	0	3	96	144	0
BST	41	0	4
SCR	41	0	4	96	144	7
TTP	42	0	0	C	1	L1
XHO	43	0	6	96
XHO	43	0	7	96
HLD	43	192	0	96
HLD	43	192	1	96
TAP	44	0	0
TAP	44	0	7
TAP	44	96	0
TAP	44	96	7
BRK	44	192	1
BRK	44	192	6
TTP	45	0	5	B	0	L1
TTP	45	96	4	B	0	L1
TTP	45	192	4	E	0	L1
TTP	46	0	2	B	0	L1
TTP	46	96	3	B	0	L1
TTP	46	192	4	E	0	L1
TTP	47	0	5	B	0	L1
TTP	47	96	6	B	0	L1
TTP	47	192	7	E	0	L1
TTP	48	0	2	B	0	L1
TTP	48	96	1	B	0	L1
TTP	48	192	1	E	0	L1
TTP	49	0	7	E	0	L1
TTP	49	96	6	B	0	L1
TTP	49	192	5	B	0	L1
TTP	50	0	1	E	0	L1
TTP	50	96	1	B	0	L1
TTP	50	192	2	B	0	L1
TTP	51	0	6	E	0	L1
TTP	51	96	5	B	0	L1
TTP	51	192	4	B	0	L1
TTP	52	0	2	E	0	L1
TTP	52	96	2	B	0	L1
TTP	52	192	3	B	0	L1
XTP	53	0	5
XTP	53	96	5
XTP	53	192	4
XTP	53	192	5
TAP	54	0	3
TAP	54	0	4
TAP	54	96	3
TAP	54	96	4
TAP	54	192	2
TAP	54	192	5
HLD	55	0	1	384
HLD	56	0	0	384
HLD	57	0	7	384
TAP	58	0	6
HLD	59	0	5	384
HLD	60	0	4	384
HLD	61	0	3	384
STR	62	0	2
SCL	62	0	2	96	384	5
XST	64	0	3
SCL	64	0	3	96	144	0
XST	64	0	4
SCR	64	0	4	96	144	7
TTP	65	0	0	C	1	L1
XTP	66	0	7
XTP	66	96	7
TAP	66	192	0
TAP	66	192	7
TAP	66	288	0
TAP	66	288	7
TAP	67	0	6
TAP	67	96	5
TAP	67	192	4
TAP	67	192	5
BRK	68	0	6
TAP	68	96	6
TAP	68	96	7
TAP	68	192	6
TAP	68	288	6
TAP	68	288	7
TAP	69	0	5
TAP	69	96	4
TAP	69	192	3
TAP	69	192	5
TAP	70	0	2
TAP	70	96	2
TAP	70	192	1
TAP	70	288	1
TAP	71	0	0
TAP	71	0	7
TAP	71	96	0
TAP	71	96	7
XTP	71	192	1
XTP	71	192	6
TAP	72	0	2
TAP	72	0	3
TAP	72	96	2
TAP	72	96	3
HLD	72	192	2	96
HLD	72	192	3	96
TAP	73	0	4
TAP	73	0	5
TAP	73	96	4
TAP	73	96	5
HLD	73	192	4	96
HLD	73	192	5	96
TAP	74	0	6
TAP	74	0	7
TAP	74	96	6
TAP	74	96	7
HLD	74	192	6	96
HLD	74	192	7	96
TAP	75	0	0
TAP	75	0	1
TAP	75	96	0
TAP	75	96	1
TAP	75	192	2
TAP	75	192	7
BRK	76	0	2
TAP	76	96	2
TAP	76	96	3
TAP	76	192	2
TAP	76	288	2
TAP	76	288	3
TAP	77	0	1
TAP	77	96	0
TAP	77	192	1
TAP	77	192	7
TAP	78	0	6
TAP	78	96	6
TAP	78	192	5
TAP	78	288	5
XTP	79	0	4
XTP	79	96	3
XTP	79	192	2
XTP	79	288	1
XTP	80	0	0
XTP	80	96	7
XTP	80	192	6
XTP	80	288	5
XTP	81	0	3
XTP	81	0	4
XTP	81	96	2
XTP	81	96	5
XTP	81	192	1
XTP	81	192	6
XTP	81	288	0
XTP	81	288	7
BST	82	0	0
SXL	82	0	0	96	432	3
BST	82	0	7
SXR	82	0	7	96	432	4
TAP	84	0	5
TAP	84	96	5
TAP	84	192	4
TAP	84	192	5
TAP	85	0	3
TAP	85	0	4
TAP	85	96	3
TAP	85	96	4
XHO	85	192	2	96
XHO	85	192	5	96

T_REC_TAP	182
T_REC_BRK	9
T_REC_XTP	49
T_REC_HLD	30
T_REC_XHO	4
T_REC_STR	3
T_REC_BST	4
T_REC_XST	2
T_REC_TTP	32
T_REC_THO	0
T_REC_SLD	9
T_REC_ALL	324
T_NUM_TAP	268
T_NUM_BRK	13
T_NUM_HLD	34
T_NUM_SLD	9
T_NUM_ALL	324
T_JUDGE_TAP	281
T_JUDGE_HLD	104
T_JUDGE_SLD	9
T_JUDGE_ALL	394
TTM_EACHPAIRS	89
TTM_SCR_TAP	134000
TTM_SCR_BRK	33800
TTM_SCR_HLD	34000
TTM_SCR_SLD	13500
TTM_SCR_ALL	215300
TTM_SCR_S	207600
TTM_SCR_SS	214000
TTM_RAT_ACV	10060

