VERSION	0.00.00	1.03.00
FES_MODE	0
BPM_DEF	145.000	145.000	145.000	145.000
MET_DEF	4	4
RESOLUTION	384
CLK_DEF	384
COMPATIBLE_CODE	MA2

BPM	0	0	145.000
MET	0	0	4	4

TAP	5	0	0
TAP	6	0	0
TAP	7	0	1
TAP	8	0	1
TAP	9	0	2
TAP	10	0	2
TAP	11	0	3
XTP	12	0	3
XTP	12	0	4
XTP	12	192	3
XTP	12	192	4
XTP	13	0	3
XTP	13	0	4
TAP	14	0	4
TAP	15	0	5
TAP	16	0	5
TAP	17	0	6
TAP	18	0	6
TAP	19	0	7
TAP	20	0	7
STR	21	0	7
SI_	21	0	7	96	288	4
STR	23	0	3
SI_	23	0	3	96	288	0
BRK	25	0	7
TAP	25	192	7
TAP	26	0	7
TAP	27	0	6
TAP	27	192	6
TAP	28	0	6
TAP	29	0	5
TAP	29	192	5
TAP	30	0	5
TAP	31	0	4
TAP	31	192	4
TAP	32	0	3
TAP	32	0	4
TAP	33	0	3
TAP	33	192	3
TAP	34	0	3
TAP	35	0	2
TAP	35	192	2
TAP	36	0	2
TAP	37	0	1
TAP	37	192	1
TAP	38	0	1
TAP	39	0	0
TAP	39	192	0
TAP	40	0	0
TAP	40	0	7
TAP	40	192	0
TAP	40	192	7
HLD	41	0	0	384
HLD	41	0	7	384
XTP	43	0	0
XTP	43	192	0
XTP	44	0	7
XTP	44	96	7
XTP	44	192	0
XTP	44	192	7
HLD	45	0	1	384
HLD	47	0	2	384
HLD	49	0	3	384
HLD	51	0	4	384
HLD	53	0	5	384
TTP	55	0	5	E	0	L1
TTP	56	0	4	E	0	L1
TTP	57	0	3	E	0	L1
TTP	58	0	2	E	0	L1
TTP	59	0	1	E	0	L1
TTP	60	0	0	E	0	L1
TTP	61	0	7	E	0	L1
TTP	62	0	6	E	0	L1
TTP	63	0	5	E	0	L1
THO	64	0	0	384	C	1	L1
TAP	66	0	0
TAP	66	192	0
TAP	67	0	1
TAP	67	192	1
TAP	68	0	2
TAP	68	0	3
TAP	68	192	2
TAP	68	192	3
TAP	69	0	4
TAP	69	0	5
TAP	69	192	4
TAP	69	192	5
TAP	70	0	6
TAP	70	192	6
TAP	71	0	7
TAP	71	192	7
TAP	72	0	7
TAP	72	96	7
TAP	72	192	7
TAP	73	0	6
TAP	73	192	6
TAP	74	0	5
TAP	74	96	5
TAP	74	192	5
TAP	75	0	4
TAP	75	0	5
TAP	75	192	4
TAP	75	192	5
TAP	76	0	3
TAP	76	96	3
TAP	76	192	3
TAP	77	0	2
TAP	77	192	2
TAP	78	0	1
TAP	78	96	1
TAP	78	192	1
TAP	79	0	0
TAP	79	0	7
TAP	79	96	0
TAP	79	96	7
XTP	79	192	0
XTP	79	192	7
TAP	80	0	1
TAP	80	0	6
TAP	80	96	1
TAP	80	96	6
XTP	80	192	1
XTP	80	192	6
TAP	81	0	2
TAP	81	0	5
TAP	81	96	2
TAP	81	96	5
XTP	81	192	2
XTP	81	192	5
HLD	82	0	3	384
HLD	82	0	4	384
TTP	84	0	3	B	0	L1
TTP	84	0	4	B	0	L1
THO	85	0	0	288	C	0	L1

T_REC_TAP	89
T_REC_BRK	1
T_REC_XTP	18
T_REC_HLD	9
T_REC_XHO	0
T_REC_STR	2
T_REC_BST	0
T_REC_XST	0
T_REC_TTP	11
T_REC_THO	2
T_REC_SLD	2
T_REC_ALL	134
T_NUM_TAP	120
T_NUM_BRK	1
T_NUM_HLD	11
T_NUM_SLD	2
T_NUM_ALL	134
T_JUDGE_TAP	121
T_JUDGE_HLD	86
T_JUDGE_SLD	2
T_JUDGE_ALL	209
TTM_EACHPAIRS	24
TTM_SCR_TAP	60000
TTM_SCR_BRK	2600
TTM_SCR_HLD	11000
TTM_SCR_SLD	3000
TTM_SCR_ALL	76600
TTM_SCR_S	74250
TTM_SCR_SS	76500
TTM_RAT_ACV	10013

