VERSION	0.00.00	1.03.00
FES_MODE	0
BPM_DEF	130.000	130.000	130.000	130.000
MET_DEF	4	4
RESOLUTION	384
CLK_DEF	384
COMPATIBLE_CODE	MA2

BPM	0	0	130.000
MET	0	0	4	4

TAP	1	0	1
TAP	1	0	3
TAP	1	48	2
TAP	1	48	4
STR	1	96	3
SXL	1	96	3	96	96	4
STR	1	96	5
SLR	1	96	5	96	96	1
HLD	2	0	2	48
HLD	2	0	4	48
HLD	2	96	3	48
HLD	2	96	5	48
HLD	2	192	2	48
HLD	2	192	4	48
HLD	2	288	4	48
HLD	2	288	6	48
TAP	3	0	4
TAP	3	0	6
TAP	3	48	3
TAP	3	48	5
STR	3	96	2
SUL	3	96	2	96	96	5
STR	3	96	4
SV_	3	96	4	96	96	2
HLD	4	0	3	48
HLD	4	0	5	48
HLD	4	96	2	48
HLD	4	96	4	48
HLD	4	192	3	48
HLD	4	192	5	48
HLD	4	288	1	48
HLD	4	288	3	48
TAP	5	0	1
TAP	5	0	3
TAP	5	48	2
TAP	5	48	4
STR	5	96	3
SV_	5	96	3	96	96	2
STR	5	96	5
SLR	5	96	5	96	96	3
HLD	6	0	2	48
HLD	6	0	4	48
HLD	6	96	3	48
HLD	6	96	5	48
HLD	6	192	2	48
HLD	6	192	4	48
HLD	6	288	4	48
HLD	6	288	6	48
HLD	7	0	3	96
HLD	7	0	7	96
TAP	7	144	2
TAP	7	144	6
HLD	7	192	2	48
HLD	7	192	6	48
HLD	7	288	1	48
HLD	7	288	5	48
HLD	8	0	0	96
HLD	8	0	4	96
TAP	8	144	1
TAP	8	144	5
HLD	8	192	1	48
HLD	8	192	5	48
HLD	8	288	2	48
HLD	8	288	4	48
TAP	9	0	1
TAP	9	0	5
TAP	9	144	2
TAP	9	144	3
TAP	9	192	2
TAP	9	192	3
TAP	9	264	3
TAP	9	264	4
TAP	9	336	4
TAP	9	336	5
HLD	10	0	4	48
HLD	10	0	5	48
STR	10	96	3
SXR	10	96	3	96	144	0
STR	10	96	6
SXR	10	96	6	96	144	3
TAP	11	48	0
TAP	11	48	3
TAP	11	96	1
TAP	11	96	4
TAP	11	144	2
TAP	11	144	5
STR	11	192	3
SCL	11	192	3	96	48	0
STR	11	192	6
SCL	11	192	6	96	48	3
TAP	11	240	3
TAP	11	240	6
TAP	12	48	0
TAP	12	48	3
TAP	12	96	1
TAP	12	96	4
TAP	12	144	2
TAP	12	144	5
STR	12	192	3
SV_	12	192	3	96	48	5
STR	12	192	6
SV_	12	192	6	96	48	4
TAP	12	240	3
TAP	12	240	6
TAP	13	48	3
TAP	13	48	5
TAP	13	96	3
TAP	13	96	5
TAP	13	144	2
TAP	13	144	6
STR	13	192	2
SI_	13	192	2	96	48	5
STR	13	192	6
SI_	13	192	6	96	48	1
STR	14	0	3
SI_	14	0	3	96	48	7
STR	14	0	4
SI_	14	0	4	96	48	0
TAP	14	48	3
TAP	14	48	4
HLD	14	192	1	48
HLD	14	192	6	48
HLD	14	288	0	48
HLD	14	288	7	48
STR	15	0	0
SI_	15	0	0	96	48	3
STR	15	0	1
SI_	15	0	1	96	48	4
TAP	15	48	0
TAP	15	48	1
STR	15	192	6
SI_	15	192	6	96	48	3
STR	15	192	7
SI_	15	192	7	96	48	4
TAP	15	240	6
TAP	15	240	7
HLD	16	0	0	48
HLD	16	0	1	48
HLD	16	96	2	48
HLD	16	96	3	48
STR	16	192	4
SCL	16	192	4	96	48	1
STR	16	192	5
SUL	16	192	5	96	48	0
TAP	16	240	4
TAP	16	240	5
TAP	17	48	6
TAP	17	48	7
TAP	17	96	6
TAP	17	96	7
TAP	17	144	0
TAP	17	144	5
TAP	17	192	1
TAP	17	192	4
TAP	17	240	2
TAP	17	240	3
TAP	17	288	2
TAP	17	288	3
TTP	17	336	4	B	0	M1
TTP	17	336	5	E	0	M1
TTP	18	0	2	B	0	M1
TTP	18	0	3	E	0	M1
TTP	18	48	5	B	0	M1
TTP	18	48	6	E	0	M1
TTP	18	96	1	B	0	M1
TTP	18	96	2	E	0	M1
TTP	18	144	6	B	0	M1
TTP	18	144	7	E	0	M1
TTP	18	192	0	B	0	M1
TTP	18	192	1	E	0	M1
BRK	18	288	1
BRK	18	288	7
HLD	19	0	2	48
HLD	19	0	3	48
HLD	19	96	4	48
HLD	19	96	5	48
HLD	19	192	2	48
HLD	19	192	3	48
TAP	19	288	2
TAP	19	288	3
TAP	19	336	3
TAP	19	336	5
TAP	20	0	2
TAP	20	0	4
TAP	20	48	3
TAP	20	48	5
TAP	20	96	2
TAP	20	96	4
TAP	20	144	3
TAP	20	144	5
STR	20	192	2
SV_	20	192	2	96	48	7
STR	20	192	4
SV_	20	192	4	96	48	7
TAP	20	240	2
TAP	20	240	4
HLD	21	0	2	48
HLD	21	0	5	48
HLD	21	96	3	48
HLD	21	96	6	48
HLD	21	192	2	48
HLD	21	192	5	48
HLD	21	288	1	48
HLD	21	288	4	48
TAP	22	0	2
TAP	22	0	5
TAP	22	48	3
TAP	22	48	6
TAP	22	96	2
TAP	22	96	5
TAP	22	144	1
TAP	22	144	4
STR	22	192	2
SI_	22	192	2	96	48	0
STR	22	192	5
SI_	22	192	5	96	48	7
TAP	22	240	2
TAP	22	240	5
TAP	23	0	0
TAP	23	0	7
TAP	23	48	2
TAP	23	48	5
STR	23	96	3
SCL	23	96	3	96	48	0
SV_	23	96	3	96	48	0
TAP	23	96	4
TAP	23	144	3
TAP	23	144	4
TAP	23	336	2
TAP	23	336	6
TAP	24	0	2
TAP	24	0	6
TAP	24	96	1
TAP	24	96	5
STR	24	192	0
SUR	24	192	0	96	48	4
STR	24	192	4
SUR	24	192	4	96	48	0
TAP	24	240	0
TAP	24	240	4
STR	24	288	0
SLL	24	288	0	96	192	4
STR	24	288	4
SLL	24	288	4	96	192	0
BRK	25	0	0
BRK	25	0	4
STR	25	288	0
SI_	25	288	0	96	48	4
STR	25	288	7
SI_	25	288	7	96	48	5
STR	26	0	0
SI_	26	0	0	96	48	2
STR	26	0	7
SI_	26	0	7	96	48	3
STR	26	96	0
SI_	26	96	0	96	48	4
STR	26	96	7
SI_	26	96	7	96	48	5
BRK	26	192	0
BRK	26	192	7
TAP	26	288	1
TAP	26	288	3
TAP	26	336	0
TAP	26	336	7
TAP	27	0	4
TAP	27	0	6
TAP	27	48	0
TAP	27	48	7
TAP	27	96	1
TAP	27	96	3
TAP	27	144	0
TAP	27	144	7
TAP	27	192	4
TAP	27	192	6
TAP	27	240	0
TAP	27	240	7
TAP	27	288	1
TAP	27	288	3
TAP	27	336	0
TAP	27	336	7
TAP	28	0	4
TAP	28	0	6
TAP	28	48	0
TAP	28	48	7
TAP	28	96	1
TAP	28	96	3
TAP	28	144	0
TAP	28	144	7
TAP	28	192	4
TAP	28	192	6
TAP	28	240	0
TAP	28	240	7
STR	28	288	1
SI_	28	288	1	96	48	7
STR	28	288	5
SI_	28	288	5	96	48	3
TAP	28	336	1
TAP	28	336	5
STR	29	96	2
SI_	29	96	2	96	48	4
STR	29	96	6
SI_	29	96	6	96	48	0
TAP	29	144	2
TAP	29	144	6
STR	29	288	0
SI_	29	288	0	96	48	2
STR	29	288	7
SI_	29	288	7	96	48	3
STR	30	0	0
SI_	30	0	0	96	48	4
STR	30	0	7
SI_	30	0	7	96	48	5
STR	30	96	0
SI_	30	96	0	96	48	2
STR	30	96	7
SI_	30	96	7	96	48	3
BRK	30	192	0
BRK	30	192	7
TAP	30	288	1
TAP	30	288	6
TAP	30	336	2
TAP	30	336	5
TAP	31	0	1
TAP	31	0	7
TAP	31	48	3
TAP	31	48	4
TAP	31	96	0
TAP	31	96	7
TAP	31	144	1
TAP	31	144	5
TAP	31	192	0
TAP	31	192	6
TAP	31	240	2
TAP	31	240	3
TAP	31	288	1
TAP	31	288	7
TAP	31	336	2
TAP	31	336	6
TAP	32	0	3
TAP	32	0	5
TAP	32	48	2
TAP	32	48	6
TAP	32	96	3
TAP	32	96	4
TAP	32	144	1
TAP	32	144	5
TAP	32	192	2
TAP	32	192	4
TAP	32	240	0
TAP	32	240	7
TAP	32	288	3
TAP	32	288	4
TAP	32	336	1
TAP	32	336	6
XST	33	0	0
SCR	33	0	0	96	48	3
XST	33	0	4
SUL	33	0	4	96	48	7
XTP	33	48	0
XTP	33	48	4
XST	33	192	3
SUR	33	192	3	96	48	0
XST	33	192	7
SCL	33	192	7	96	48	4
XTP	33	240	3
XTP	33	240	7
XTP	34	0	0
XTP	34	0	4
XTP	34	48	0
XTP	34	48	4
HLD	34	96	1	48
HLD	34	96	5	48
HLD	34	192	1	48
HLD	34	192	5	48
HLD	34	288	2	48
HLD	34	288	6	48
XTP	35	0	3
XTP	35	0	7
XTP	35	48	3
XTP	35	48	7
HLD	35	96	2	48
HLD	35	96	6	48
HLD	35	192	2	48
HLD	35	192	6	48
HLD	35	288	1	48
HLD	35	288	5	48
XTP	36	0	0
XTP	36	0	4
XTP	36	48	0
XTP	36	48	4
HLD	36	96	1	48
HLD	36	96	5	48
HLD	36	192	2	48
HLD	36	192	6	48
STR	36	288	3
SXR	36	288	3	96	144	4
STR	36	288	7
SXL	36	288	7	96	144	6
TAP	36	336	3
TAP	36	336	7
XTP	37	192	3
XTP	37	192	7
TAP	37	288	4
TAP	37	288	6
TAP	37	336	3
TAP	37	336	5
TAP	38	0	2
TAP	38	0	4
TAP	38	96	1
TAP	38	96	5
TAP	38	144	1
TAP	38	144	5
STR	38	192	2
SCL	38	192	2	96	48	7
STR	38	192	6
SCL	38	192	6	96	48	3
TAP	38	240	2
TAP	38	240	6
TAP	39	0	1
TAP	39	0	5
TAP	39	48	1
TAP	39	48	5
STR	39	96	0
SI_	39	96	0	96	48	4
STR	39	96	7
SI_	39	96	7	96	48	3
TAP	39	144	1
TAP	39	144	6
XTP	39	288	3
XTP	39	288	4
XTP	39	336	3
XTP	39	336	4
HLD	40	0	2	48
HLD	40	0	5	48
HLD	40	96	1	48
HLD	40	96	6	48
HLD	40	192	3	48
HLD	40	192	5	48
HLD	40	288	2	48
HLD	40	288	4	48
HLD	41	0	1	48
HLD	41	0	6	48
STR	41	96	0
SCR	41	96	0	96	48	3
STR	41	96	7
SCL	41	96	7	96	48	4
TAP	41	144	0
TAP	41	144	7
BST	41	288	2
SI_	41	288	2	96	48	4
BST	41	288	5
SXL	41	288	5	96	576	0
TTP	43	0	1	B	0	M1
TTP	43	0	2	E	0	M1
TTP	43	96	4	B	0	M1
TTP	43	96	4	E	0	M1
TTP	43	192	2	B	0	M1
TTP	43	192	3	E	0	M1
BST	43	288	1
SI_	43	288	1	96	48	7
BST	43	288	6
SXR	43	288	6	96	576	3
TTP	45	0	7	B	0	M1
TTP	45	0	7	E	0	M1
TTP	45	96	2	B	0	M1
TTP	45	96	2	E	0	M1
TTP	45	192	1	B	0	M1
TTP	45	192	1	E	0	M1
TAP	45	288	0
TAP	45	288	7
HLD	46	0	6	96
HLD	46	0	7	96
HLD	46	192	4	96
HLD	46	192	5	96
TTP	47	0	3	B	0	M1
TTP	47	0	3	E	0	M1
TTP	47	48	5	B	0	M1
TTP	47	48	5	E	0	M1
TTP	47	96	2	B	0	M1
TTP	47	96	2	E	0	M1
TTP	47	144	6	B	0	M1
TTP	47	144	6	E	0	M1
TTP	47	192	1	B	0	M1
TTP	47	192	1	E	0	M1
TTP	47	240	7	B	0	M1
TTP	47	240	7	E	0	M1
TTP	47	288	3	B	0	M1
TTP	47	288	4	B	0	M1
HLD	48	0	2	288
HLD	48	0	5	288
TTP	49	0	3	B	0	M1
TTP	49	0	4	E	0	M1
TTP	49	48	4	B	0	M1
TTP	49	48	5	E	0	M1
TTP	49	96	1	B	0	M1
TTP	49	96	2	E	0	M1
TTP	49	144	6	B	0	M1
TTP	49	144	6	E	0	M1
TTP	49	192	0	B	0	M1
TTP	49	192	1	E	0	M1
TTP	49	240	0	E	0	M1
TTP	49	240	7	B	0	M1
TTP	49	288	4	B	0	M1
TTP	49	288	5	B	0	M1
TAP	50	0	1
TAP	50	0	7
TAP	50	48	1
TAP	50	48	7
TAP	50	96	2
TAP	50	96	6
TAP	50	144	2
TAP	50	144	6
TAP	50	192	3
TAP	50	192	5
TAP	50	240	3
TAP	50	240	5
TAP	50	288	2
TAP	50	288	6
TAP	50	336	2
TAP	50	336	6
HLD	51	0	1	48
HLD	51	0	4	48
HLD	51	96	3	48
HLD	51	96	6	48
TAP	51	192	3
TAP	51	192	6
TAP	51	240	2
TAP	51	240	5
STR	51	288	1
SXL	51	288	1	96	144	7
STR	51	288	4
SXR	51	288	4	96	144	6
TAP	51	336	0
TAP	51	336	5
TAP	52	192	2
TAP	52	192	4
TAP	52	216	2
TAP	52	216	4
XTP	52	264	3
XTP	52	264	5
TAP	52	312	2
XTP	52	312	4
XTP	52	336	2
TAP	52	336	4
TAP	52	360	2
XTP	52	360	4
TAP	53	24	3
TAP	53	24	5
TAP	53	48	3
TAP	53	48	5
TAP	53	96	2
TAP	53	96	6
TAP	53	144	1
TAP	53	144	4
TAP	53	192	3
TAP	53	192	5
TAP	53	240	2
TAP	53	240	4
TAP	53	288	1
TAP	53	288	5
TAP	53	336	1
TAP	53	336	5
HLD	54	0	0	24
HLD	54	0	7	24
HLD	54	48	0	24
HLD	54	48	7	24
HLD	54	96	4	24
HLD	54	96	6	24
HLD	54	144	4	24
HLD	54	144	6	24
HLD	54	192	1	24
HLD	54	192	3	24
HLD	54	240	1	24
HLD	54	240	3	24
HLD	54	288	0	24
HLD	54	288	7	24
HLD	54	336	1	24
HLD	54	336	6	24
HLD	55	0	0	24
HLD	55	0	7	24
HLD	55	48	0	24
HLD	55	48	7	24
HLD	55	96	1	24
HLD	55	96	3	24
HLD	55	144	1	24
HLD	55	144	3	24
HLD	55	192	4	24
HLD	55	192	6	24
HLD	55	240	4	24
HLD	55	240	6	24
HLD	55	288	0	24
HLD	55	288	7	24
HLD	55	336	1	24
HLD	55	336	6	24
HLD	56	0	3	24
HLD	56	0	5	24
HLD	56	48	3	24
HLD	56	48	5	24
HLD	56	96	2	24
HLD	56	96	4	24
HLD	56	144	2	24
HLD	56	144	4	24
HLD	56	192	3	24
HLD	56	192	5	24
HLD	56	240	3	24
HLD	56	240	5	24
HLD	56	288	2	24
HLD	56	288	4	24
HLD	56	336	1	24
HLD	56	336	3	24
HLD	57	0	0	24
HLD	57	0	7	24
HLD	57	48	0	24
HLD	57	48	7	24
HLD	57	96	1	24
HLD	57	96	3	24
HLD	57	144	1	24
HLD	57	144	3	24
HLD	57	192	4	24
HLD	57	192	6	24
HLD	57	240	4	24
HLD	57	240	6	24
HLD	57	288	0	24
HLD	57	288	7	24
HLD	57	336	0	24
HLD	57	336	7	24
BRK	58	0	1
BRK	58	0	6
TAP	58	192	3
TAP	58	192	4
TAP	58	288	3
TAP	58	288	4
TTP	59	0	5	B	0	M1
TTP	59	0	5	E	0	M1
TTP	59	0	6	E	0	M1
TTP	59	48	2	B	0	M1
TTP	59	48	2	E	0	M1
TTP	59	48	3	E	0	M1
TTP	59	96	6	B	0	M1
TTP	59	96	6	E	0	M1
TTP	59	96	7	E	0	M1
TTP	59	144	1	B	0	M1
TTP	59	144	1	E	0	M1
TTP	59	144	2	E	0	M1
TAP	59	192	3
TAP	59	192	4
TAP	59	240	2
TAP	59	240	5
STR	59	288	0
SI_	59	288	0	96	48	4
STR	59	288	7
SI_	59	288	7	96	48	5
TAP	59	336	1
TAP	59	336	6
BST	60	0	0
SI_	60	0	0	96	48	2
BST	60	0	7
SI_	60	0	7	96	48	3
BST	60	96	0
SI_	60	96	0	96	48	4
BST	60	96	7
SI_	60	96	7	96	48	5
BRK	60	192	0
BRK	60	192	7
TAP	60	288	1
TAP	60	288	3
TAP	60	336	0
TAP	60	336	7
TAP	61	0	4
TAP	61	0	6
TAP	61	48	0
TAP	61	48	7
STR	61	96	1
SI_	61	96	1	96	48	5
STR	61	96	3
SI_	61	96	3	96	48	6
TAP	61	144	0
TAP	61	144	7
TAP	61	288	4
TAP	61	288	6
TAP	61	336	0
TAP	61	336	7
TAP	62	0	1
TAP	62	0	6
TAP	62	48	0
TAP	62	48	7
STR	62	96	1
SI_	62	96	1	96	48	5
STR	62	96	3
SI_	62	96	3	96	48	6
TAP	62	144	0
TAP	62	144	7
TAP	62	288	4
TAP	62	288	7
TAP	62	336	4
TAP	62	336	7
HLD	63	0	3	48
HLD	63	0	6	48
HLD	63	96	1	48
HLD	63	96	4	48
TAP	63	192	2
TAP	63	192	5
TAP	63	240	1
TAP	63	240	6
STR	63	288	0
SI_	63	288	0	96	48	4
STR	63	288	7
SI_	63	288	7	96	48	3
BRK	64	0	0
BRK	64	0	7
STR	64	96	0
SCR	64	96	0	96	48	3
STR	64	96	7
SCL	64	96	7	96	48	4
BRK	64	192	0
BRK	64	192	7
STR	64	288	3
SCR	64	288	3	96	48	7
STR	64	288	4
SCR	64	288	4	96	48	7
BST	65	0	3
SCL	65	0	3	96	48	0
BST	65	0	4
SCL	65	0	4	96	48	0
BST	65	96	3
SUR	65	96	3	96	96	4
BST	65	96	4
SCR	65	96	4	96	96	3
BRK	65	192	3
BRK	65	192	4
TAP	66	0	2
TAP	66	0	7
TAP	66	48	2
TAP	66	48	7
TAP	66	96	3
TAP	66	96	6
TAP	66	144	3
TAP	66	144	6
TAP	66	192	2
TAP	66	192	5
TAP	66	240	2
TAP	66	240	5
TAP	66	288	1
TAP	66	288	4
TAP	66	336	1
TAP	66	336	4
HLD	67	0	2	48
HLD	67	0	5	48
HLD	67	96	3	48
HLD	67	96	6	48
TAP	67	192	3
TAP	67	192	5
TAP	67	240	2
TAP	67	240	4
STR	67	288	1
SXR	67	288	1	96	288	6
STR	67	288	3
SUR	67	288	3	96	288	6
TAP	67	336	1
TAP	67	336	3
TAP	69	0	0
TAP	69	0	7
TAP	69	48	2
TAP	69	48	4
TAP	69	96	1
TAP	69	96	7
TAP	69	144	3
TAP	69	144	5
TAP	69	192	2
TAP	69	192	4
TAP	69	240	2
TAP	69	240	4
TAP	69	288	3
TAP	69	288	5
TAP	69	336	4
TAP	69	336	6
TAP	70	0	4
TAP	70	0	7
TAP	70	48	4
TAP	70	48	7
TAP	70	96	4
TAP	70	96	6
TAP	70	144	4
TAP	70	144	6
TAP	70	192	4
TAP	70	192	7
TAP	70	240	0
TAP	70	240	4
TAP	70	288	1
TAP	70	288	4
TAP	70	336	1
TAP	70	336	4
TAP	71	0	0
TAP	71	0	4
TAP	71	48	4
TAP	71	48	7
TAP	71	96	4
TAP	71	96	6
TAP	71	144	4
TAP	71	144	5
TAP	71	192	3
TAP	71	192	6
XST	71	288	1
SCL	71	288	1	96	48	6
XST	71	288	5
SUR	71	288	5	96	48	2
XTP	72	0	1
XTP	72	0	5
XST	72	96	3
SI_	72	96	3	96	48	0
XST	72	96	4
SI_	72	96	4	96	48	7
XTP	72	192	3
XTP	72	192	4
TAP	72	288	3
TAP	72	288	6
TAP	72	336	4
TAP	72	336	5
TAP	73	0	1
TAP	73	0	4
TAP	73	48	2
TAP	73	48	3
STR	73	96	3
SI_	73	96	3	96	48	0
STR	73	96	6
SI_	73	96	6	96	48	2
TAP	73	144	4
TAP	73	144	5
TAP	73	288	1
TAP	73	288	4
TAP	73	336	2
TAP	73	336	3
TAP	74	0	3
TAP	74	0	6
TAP	74	48	4
TAP	74	48	5
STR	74	96	1
SI_	74	96	1	96	48	5
STR	74	96	4
SI_	74	96	4	96	48	7
TAP	74	144	2
TAP	74	144	3
STR	74	288	4
SI_	74	288	4	96	48	1
STR	74	288	6
SCL	74	288	6	96	48	3
TAP	75	96	1
TAP	75	96	5
TAP	75	144	2
TAP	75	144	6
STR	75	192	3
SV_	75	192	3	96	48	0
STR	75	192	7
SV_	75	192	7	96	48	4
STR	75	288	3
SI_	75	288	3	96	48	1
STR	75	288	7
SI_	75	288	7	96	48	5
HLD	76	192	3	144
HLD	76	192	6	144
TTP	77	0	4	B	0	M1
TTP	77	0	5	B	0	M1
TTP	77	48	2	B	0	M1
TTP	77	48	3	B	0	M1
TTP	77	96	0	B	0	M1
TTP	77	96	1	B	0	M1
TTP	77	144	6	B	0	M1
TTP	77	144	7	B	0	M1
TTP	77	192	3	B	0	M1
TTP	77	192	4	B	0	M1
TTP	77	240	1	B	0	M1
TTP	77	240	2	B	0	M1
TTP	77	288	0	B	0	M1
TTP	77	288	7	B	0	M1
TTP	77	336	5	B	0	M1
TTP	77	336	6	B	0	M1
HLD	78	0	2	144
HLD	78	0	3	144
HLD	78	192	1	144
HLD	78	192	4	144
TTP	79	0	2	B	0	M1
TTP	79	0	3	B	0	M1
TTP	79	48	4	B	0	M1
TTP	79	48	5	B	0	M1
TTP	79	96	6	B	0	M1
TTP	79	96	7	B	0	M1
TTP	79	144	0	B	0	M1
TTP	79	144	1	B	0	M1
TTP	79	192	3	B	0	M1
TTP	79	192	4	B	0	M1
TTP	79	240	5	B	0	M1
TTP	79	240	6	B	0	M1
STR	79	288	0
SI_	79	288	0	96	48	3
STR	79	288	7
SI_	79	288	7	96	48	4

T_REC_TAP	374
T_REC_BRK	18
T_REC_XTP	31
T_REC_HLD	174
T_REC_XHO	0
T_REC_STR	83
T_REC_BST	12
T_REC_XST	8
T_REC_TTP	92
T_REC_THO	0
T_REC_SLD	104
T_REC_ALL	896
T_NUM_TAP	588
T_NUM_BRK	30
T_NUM_HLD	174
T_NUM_SLD	104
T_NUM_ALL	896
T_JUDGE_TAP	618
T_JUDGE_HLD	204
T_JUDGE_SLD	104
T_JUDGE_ALL	926
TTM_EACHPAIRS	350
TTM_SCR_TAP	294000
TTM_SCR_BRK	78000
TTM_SCR_HLD	174000
TTM_SCR_SLD	156000
TTM_SCR_ALL	702000
TTM_SCR_S	678050
TTM_SCR_SS	699000
TTM_RAT_ACV	10042

