VERSION	0.00.00	1.03.00
FES_MODE	0
BPM_DEF	130.000	130.000	130.000	130.000
MET_DEF	4	4
RESOLUTION	384
CLK_DEF	384
COMPATIBLE_CODE	MA2

BPM	0	0	130.000
MET	0	0	4	4

HLD	1	0	4	384
TAP	1	144	3
TAP	1	192	3
TAP	1	336	2
HLD	2	0	2	384
TAP	2	144	3
TAP	2	192	3
HLD	3	0	3	384
TAP	3	144	2
TAP	3	192	2
HLD	4	0	4	288
TAP	4	144	5
XHO	4	192	5	96
TAP	5	0	4
HLD	5	0	6	384
TAP	5	144	5
TAP	5	192	5
HLD	6	0	4	288
TAP	6	144	5
HLD	6	192	5	96
HLD	7	0	4	144
HLD	7	0	5	144
TAP	7	192	4
TAP	7	192	5
TAP	7	288	3
TAP	7	288	4
HLD	8	0	2	144
HLD	8	0	3	144
TAP	8	192	2
TAP	8	192	3
TAP	8	288	3
TAP	8	288	4
HLD	9	0	5	192
TAP	9	144	4
HLD	9	192	4	192
TAP	9	336	6
HLD	10	0	6	384
TAP	10	144	5
TAP	10	192	5
TAP	10	336	5
HLD	11	0	5	384
TAP	11	144	4
TAP	11	192	4
TAP	11	336	3
HLD	12	0	3	192
TAP	12	144	2
TAP	12	192	2
STR	13	0	0
SUL	13	0	0	96	192	7
HLD	13	0	5	480
HLD	14	0	6	96
TAP	14	144	5
TAP	14	144	6
TAP	14	192	5
TAP	14	192	6
TAP	14	336	4
TAP	14	336	5
HLD	15	0	4	96
HLD	15	0	5	96
TAP	15	144	3
TAP	15	144	4
HLD	15	192	3	96
HLD	15	192	4	96
TAP	15	336	2
TAP	15	336	3
HLD	16	0	2	96
HLD	16	0	3	96
TAP	16	144	3
TAP	16	144	4
HLD	16	192	3	96
HLD	16	192	4	96
TAP	17	0	2
HLD	17	0	3	192
TAP	17	96	2
TAP	17	144	1
HLD	17	192	1	192
TAP	17	288	3
TAP	17	336	4
HLD	18	0	4	192
TAP	18	96	1
TAP	18	144	0
TAP	18	192	0
TAP	18	288	0
TAP	18	288	4
HLD	19	0	1	192
TAP	19	0	3
TAP	19	96	3
TAP	19	144	4
HLD	19	192	4	192
TAP	19	288	3
TAP	19	336	2
HLD	20	0	2	192
TAP	20	96	4
TAP	20	144	5
XTP	20	192	5
XTP	20	288	2
XTP	20	288	5
TAP	21	0	3
HLD	21	0	6	192
TAP	21	96	2
TAP	21	144	1
HLD	21	192	1	192
TAP	21	288	6
TAP	21	336	7
HLD	22	0	7	288
TAP	22	96	3
TAP	22	144	2
HLD	22	192	2	96
HLD	23	0	1	48
HLD	23	0	6	48
HLD	23	96	1	48
HLD	23	96	6	48
TAP	23	192	1
TAP	23	192	6
TAP	23	336	2
TAP	23	336	5
HLD	24	0	2	96
HLD	24	0	5	96
HLD	24	192	3	96
HLD	24	192	4	96
BRK	25	0	3
BRK	25	0	4
XST	25	288	0
SI_	25	288	0	96	48	6
STR	26	0	5
SI_	26	0	5	96	48	3
STR	26	96	0
SI_	26	96	0	96	48	6
TAP	26	192	5
TAP	26	288	0
HLD	27	0	4	48
HLD	27	0	5	48
HLD	27	96	2	48
HLD	27	96	3	48
HLD	27	192	4	48
HLD	27	192	5	48
HLD	27	288	2	48
HLD	27	288	3	48
HLD	28	0	4	48
HLD	28	0	6	48
HLD	28	96	1	48
HLD	28	96	3	48
HLD	28	192	4	48
HLD	28	192	6	48
TAP	28	288	1
TAP	28	288	3
TAP	29	0	4
TAP	29	48	4
TAP	29	96	3
TAP	29	96	5
XTP	29	192	2
XTP	29	192	6
TAP	29	288	3
STR	29	288	7
SI_	29	288	7	96	48	1
STR	30	0	2
SI_	30	0	2	96	48	4
STR	30	96	7
SI_	30	96	7	96	48	1
TAP	30	192	2
TAP	30	288	7
HLD	31	0	2	48
HLD	31	0	3	48
HLD	31	96	4	48
HLD	31	96	6	48
HLD	31	192	1	48
HLD	31	192	3	48
HLD	31	288	4	48
HLD	31	288	5	48
HLD	32	0	2	48
HLD	32	0	3	48
HLD	32	96	4	48
HLD	32	96	6	48
HLD	32	192	1	48
HLD	32	192	3	48
TAP	32	288	0
TAP	32	288	7
TAP	33	0	5
TAP	33	48	5
TAP	33	96	4
TAP	33	96	6
TAP	33	192	2
TAP	33	240	2
TAP	33	288	1
TAP	33	288	3
TAP	34	0	0
TAP	34	0	4
TAP	34	48	5
HLD	34	96	6	96
TTP	34	192	6	E	0	M1
TTP	34	240	5	E	0	M1
TTP	34	288	4	E	0	M1
TAP	35	0	4
TAP	35	48	5
HLD	35	96	6	96
TTP	35	192	6	E	0	M1
TTP	35	240	5	E	0	M1
TTP	35	288	4	E	0	M1
STR	36	0	6
SCL	36	0	6	96	48	4
STR	36	96	3
SCL	36	96	3	96	48	1
STR	36	192	6
SI_	36	192	6	96	48	4
STR	36	288	0
SSL	36	288	0	96	192	4
XTP	37	192	5
BRK	37	288	2
BRK	37	288	6
TAP	38	0	4
HLD	38	0	5	96
TAP	38	96	7
HLD	38	192	2	96
TAP	38	192	3
TAP	38	288	0
TAP	39	0	1
TAP	39	0	7
TAP	39	96	4
TAP	39	96	5
TAP	39	192	0
TAP	39	192	6
STR	39	288	1
SUR	39	288	1	96	96	6
TAP	39	288	5
TAP	40	0	7
TAP	40	192	0
TAP	40	192	7
TAP	40	288	1
STR	40	288	6
SUL	40	288	6	96	96	1
TAP	41	0	0
TAP	41	192	0
TAP	41	192	7
HLD	41	288	0	96
STR	41	288	7
SI_	41	288	7	96	384	4
TTP	43	0	1	B	0	M1
TTP	43	96	2	B	0	M1
TTP	43	192	3	E	0	M1
STR	43	288	4
SI_	43	288	4	96	384	7
TTP	45	0	2	B	0	M1
TTP	45	96	1	B	0	M1
TTP	45	192	1	E	0	M1
TAP	45	288	7
HLD	46	0	0	96
HLD	46	0	7	1440
HLD	46	192	1	96
TTP	47	0	0	E	0	M1
TTP	47	96	0	C	0	M1
TTP	47	192	4	E	0	M1
TTP	47	288	2	E	0	M1
TTP	48	0	0	E	0	M1
TTP	49	0	0	E	0	M1
TTP	49	96	0	C	0	M1
TTP	49	192	4	E	0	M1
TTP	49	288	2	E	0	M1
XTP	50	0	0
XTP	50	0	7
TAP	50	96	1
TAP	50	96	6
TAP	50	192	5
TAP	50	240	5
TAP	50	288	4
TAP	50	336	6
TAP	51	0	3
TAP	51	48	3
TAP	51	96	2
TAP	51	96	4
TAP	51	192	3
TAP	51	192	5
TAP	51	240	3
TAP	51	240	5
TAP	51	288	3
TAP	51	288	5
TAP	51	336	2
TAP	52	0	2
TAP	52	48	4
TAP	52	96	4
TAP	52	144	1
TAP	52	192	1
TAP	52	240	7
TAP	52	288	7
XTP	52	336	0
XST	53	0	0
SCR	53	0	0	96	96	3
HLD	53	192	5	96
TAP	53	288	4
TAP	54	0	3
TAP	54	0	6
TAP	54	48	3
TAP	54	48	6
TAP	54	96	3
TAP	54	96	6
TAP	54	192	4
TAP	54	192	5
TAP	54	288	6
TAP	54	288	7
TAP	55	0	6
TAP	55	48	6
TAP	55	96	0
TAP	55	144	0
TAP	55	192	5
TAP	55	240	5
TAP	55	288	3
TAP	55	336	3
STR	56	0	4
SCR	56	0	4	96	96	7
HLD	56	192	1	96
TAP	56	288	0
TAP	57	0	2
TAP	57	0	7
TAP	57	48	2
TAP	57	48	7
TAP	57	96	2
TAP	57	96	7
BRK	57	192	0
BRK	57	192	3
TTP	58	0	3	E	0	M1
TTP	58	96	2	E	0	M1
TTP	58	192	5	E	0	M1
TTP	58	288	6	E	0	M1
TAP	59	0	0
TAP	59	48	0
TAP	59	96	7
TAP	59	144	7
TAP	59	192	0
TAP	59	288	1
STR	59	288	7
SI_	59	288	7	96	48	1
STR	60	0	3
SI_	60	0	3	96	48	5
STR	60	96	6
SI_	60	96	6	96	48	2
TAP	60	192	0
TAP	60	288	0
HLD	61	0	1	48
HLD	61	0	3	48
HLD	61	96	4	48
HLD	61	96	6	48
HLD	61	192	0	48
HLD	61	192	2	48
HLD	61	288	5	48
HLD	61	288	7	48
HLD	62	0	1	48
HLD	62	0	3	48
HLD	62	96	4	48
HLD	62	96	6	48
HLD	62	192	1	48
HLD	62	192	3	48
TAP	62	288	4
TAP	62	288	6
TAP	63	0	5
TAP	63	48	5
TAP	63	96	4
TAP	63	144	6
TAP	63	192	0
TAP	63	240	0
TAP	63	288	0
TAP	63	288	7
STR	64	0	0
SI_	64	0	0	96	48	4
STR	64	0	1
SI_	64	0	1	96	48	5
STR	64	192	6
SI_	64	192	6	96	48	2
STR	64	192	7
SI_	64	192	7	96	48	3
BRK	65	0	1
BRK	65	0	4
BRK	65	96	3
BRK	65	96	6
BRK	65	192	0
BRK	65	192	4
BRK	65	288	2
BRK	65	288	7
TAP	66	0	4
TAP	66	0	5
TAP	66	48	4
TAP	66	48	5
TAP	66	96	3
TAP	66	96	6
TAP	66	192	2
TAP	66	192	3
TAP	66	240	2
TAP	66	240	3
TAP	66	288	1
TAP	66	288	4
HLD	67	0	6	96
HLD	67	96	4	96
HLD	67	192	3	96
TAP	67	288	1
TTP	68	0	2	E	0	M1
TTP	68	0	3	E	0	M1
TTP	68	96	4	E	0	M1
TTP	68	96	5	E	0	M1
TTP	68	192	6	E	0	M1
TTP	68	192	7	E	0	M1
TTP	68	288	0	E	0	M1
TTP	68	288	1	E	0	M1
TTP	69	0	2	E	0	M1
TTP	69	0	3	E	0	M1
TTP	69	96	4	E	0	M1
TTP	69	96	5	E	0	M1
TTP	69	192	6	E	0	M1
TTP	69	192	7	E	0	M1
TTP	69	288	0	E	0	M1
TTP	69	288	1	E	0	M1
HLD	70	0	2	96
HLD	70	96	3	96
TAP	70	192	2
TAP	70	240	2
TAP	70	288	1
TAP	70	288	4
HLD	71	0	5	96
TAP	71	96	4
TAP	71	144	4
TAP	71	192	3
TAP	71	192	6
TAP	71	288	2
STR	71	288	7
SI_	71	288	7	96	48	1
STR	72	0	3
SI_	72	0	3	96	48	5
STR	72	96	6
SI_	72	96	6	96	48	2
TAP	72	192	0
TAP	72	288	0
HLD	73	0	1	48
HLD	73	0	7	48
HLD	73	96	0	48
HLD	73	96	6	48
HLD	73	192	1	48
HLD	73	192	7	48
HLD	73	288	0	48
HLD	73	288	6	48
HLD	74	0	2	48
HLD	74	0	7	48
HLD	74	96	0	48
HLD	74	96	5	48
HLD	74	192	2	48
HLD	74	192	7	48
HLD	74	288	0	48
HLD	74	288	5	48
TAP	75	0	2
TAP	75	0	7
TAP	75	48	6
TAP	75	96	1
TAP	75	96	5
TAP	75	144	2
TAP	75	192	3
TAP	75	192	6
TAP	75	240	5
TAP	75	288	2
TAP	75	288	4
BRK	76	0	1
BRK	76	0	5
TAP	76	288	3
TAP	76	336	2
HLD	77	0	2	384
TAP	77	144	3
XTP	77	192	3
TAP	77	288	4
TAP	77	336	5
HLD	78	0	5	384
TAP	78	144	3
TAP	78	192	3
TAP	78	288	4
TAP	78	336	3
HLD	79	0	3	96
TAP	79	96	4
TAP	79	144	3
TAP	79	144	4
HLD	79	192	2	96
HLD	79	192	5	96
TTP	80	0	3	B	0	M1
TTP	80	0	3	E	0	M1
TTP	80	0	4	B	0	M1
TTP	80	0	5	E	0	M1

T_REC_TAP	230
T_REC_BRK	16
T_REC_XTP	10
T_REC_HLD	123
T_REC_XHO	1
T_REC_STR	25
T_REC_BST	0
T_REC_XST	2
T_REC_TTP	45
T_REC_THO	0
T_REC_SLD	27
T_REC_ALL	479
T_NUM_TAP	312
T_NUM_BRK	16
T_NUM_HLD	124
T_NUM_SLD	27
T_NUM_ALL	479
T_JUDGE_TAP	328
T_JUDGE_HLD	308
T_JUDGE_SLD	27
T_JUDGE_ALL	663
TTM_EACHPAIRS	119
TTM_SCR_TAP	156000
TTM_SCR_BRK	41600
TTM_SCR_HLD	124000
TTM_SCR_SLD	40500
TTM_SCR_ALL	362100
TTM_SCR_S	349700
TTM_SCR_SS	360500
TTM_RAT_ACV	10044

