VERSION	0.00.00	1.03.00
FES_MODE	0
BPM_DEF	130.000	130.000	130.000	130.000
MET_DEF	4	4
RESOLUTION	384
CLK_DEF	384
COMPATIBLE_CODE	MA2

BPM	0	0	130.000
MET	0	0	4	4

XST	1	0	6
SI_	1	0	6	96	144	3
STR	2	0	2
SI_	2	0	2	96	144	7
STR	3	0	6
SI_	3	0	6	96	144	2
TAP	4	0	1
TAP	4	192	0
TAP	4	192	1
STR	5	0	7
SI_	5	0	7	96	144	4
STR	6	0	3
SI_	6	0	3	96	144	0
STR	7	0	7
SI_	7	0	7	96	144	4
TAP	8	0	3
TAP	8	192	3
TAP	8	192	4
HLD	9	0	2	192
TAP	9	192	3
HLD	10	0	5	192
TAP	10	192	4
HLD	11	0	2	192
TAP	11	192	3
HLD	12	0	4	96
HLD	12	0	5	96
TAP	12	192	4
TAP	12	192	5
HLD	13	0	2	192
HLD	13	192	3	192
HLD	14	0	4	192
TAP	14	192	5
HLD	15	0	6	192
HLD	15	192	7	192
HLD	16	0	0	192
TAP	16	192	1
TAP	17	0	2
TAP	17	96	2
TAP	17	192	3
TAP	18	0	5
TAP	18	96	5
TAP	18	192	4
TAP	19	0	2
TAP	19	96	2
TAP	19	192	3
TAP	20	0	4
TAP	20	96	4
TAP	20	192	3
TAP	20	192	5
TAP	21	0	6
TAP	21	96	6
TAP	21	192	7
TAP	22	0	1
TAP	22	96	1
TAP	22	192	0
TAP	23	0	6
TAP	23	96	6
TAP	23	192	7
TAP	24	0	0
TAP	24	96	0
TAP	24	192	7
TAP	24	288	7
STR	25	0	0
SI_	25	0	0	96	144	3
STR	25	0	7
SI_	25	0	7	96	144	4
BRK	26	0	5
TAP	26	96	5
TAP	26	192	4
TAP	26	192	5
TAP	26	288	4
TAP	26	288	5
TAP	27	0	6
TAP	27	96	7
TAP	27	192	0
TAP	27	192	6
TAP	28	0	1
TAP	28	96	1
TAP	28	192	0
TAP	28	192	1
TAP	28	288	0
TAP	28	288	1
TAP	29	0	2
TAP	29	96	3
TAP	29	96	4
XTP	29	192	2
XTP	29	192	5
BRK	30	0	6
TAP	30	96	6
TAP	30	192	6
TAP	30	192	7
TAP	30	288	6
TAP	30	288	7
TAP	31	0	5
TAP	31	96	4
TAP	31	192	3
TAP	31	192	5
TAP	32	0	2
TAP	32	96	2
TAP	32	192	2
TAP	32	192	3
TAP	32	288	2
TAP	32	288	3
TAP	33	0	1
TAP	33	96	0
TAP	33	96	7
XTP	33	192	1
XTP	33	192	6
TTP	34	0	6	E	0	L1
TTP	34	96	5	B	0	L1
TTP	34	192	4	B	0	L1
TTP	35	0	2	E	0	L1
TTP	35	96	2	B	0	L1
TTP	35	192	3	B	0	L1
TTP	36	0	6	E	0	L1
TTP	36	96	5	B	0	L1
TTP	36	192	4	B	0	L1
TTP	37	0	2	E	0	L1
TTP	37	96	2	B	0	L1
TTP	37	192	3	B	0	L1
XTP	38	0	5
XTP	38	96	5
TAP	38	192	4
TAP	38	192	5
TAP	38	288	4
TAP	38	288	5
TAP	39	0	6
TAP	39	96	7
TAP	39	192	0
TAP	39	192	6
TAP	40	0	1
TAP	40	96	1
TAP	40	192	0
TAP	40	192	1
TAP	40	288	0
TAP	40	288	1
TAP	41	0	2
TAP	41	96	3
TAP	41	96	4
XTP	41	192	2
XTP	41	192	5
TAP	42	0	6
TAP	42	96	6
TAP	42	192	6
TAP	42	192	7
STR	43	0	0
SI_	43	0	0	96	144	3
TAP	44	0	5
TAP	44	96	5
TAP	44	192	4
TAP	44	192	5
STR	45	0	3
SI_	45	0	3	96	144	0
TAP	46	0	6
TAP	46	96	6
TAP	46	192	6
TAP	46	192	7
STR	47	0	0
SV_	47	0	0	96	144	3
TAP	48	0	5
TAP	48	96	5
TAP	48	192	4
TAP	48	192	5
STR	49	0	3
SV_	49	0	3	96	144	0
XHO	50	0	6	192
HLD	50	192	7	192
HLD	51	0	0	192
TAP	51	192	1
HLD	52	0	1	192
HLD	52	192	0	192
HLD	53	0	7	192
TAP	53	192	6
HLD	54	0	5	96
TAP	54	96	4
TAP	54	192	4
HLD	55	0	2	96
TAP	55	96	3
TAP	55	192	3
HLD	56	0	5	96
TAP	56	96	4
TAP	56	192	4
TAP	57	0	3
TAP	57	96	3
TAP	57	192	2
TAP	57	192	4
TTP	58	0	5	B	0	L1
TTP	58	0	5	E	0	L1
TTP	58	192	2	B	0	L1
TTP	58	192	3	E	0	L1
TTP	59	0	5	E	0	L1
TTP	59	96	4	E	0	L1
TTP	59	192	3	E	0	L1
BRK	60	0	1
TAP	60	96	0
TAP	60	96	1
TAP	60	192	1
TAP	60	288	0
TAP	60	288	1
TAP	61	0	2
TAP	61	96	3
TAP	61	192	2
TAP	61	192	4
TAP	62	0	5
TAP	62	96	4
TAP	62	96	5
TAP	62	192	5
TAP	62	288	4
TAP	62	288	5
TAP	63	0	6
TAP	63	96	0
TAP	63	96	7
XTP	63	192	1
XTP	63	192	6
BRK	64	0	2
TAP	64	96	2
TAP	64	96	3
XTP	64	192	2
TAP	64	288	2
TAP	64	288	3
XTP	65	0	1
XTP	65	96	0
XTP	65	192	1
XTP	65	192	7
TAP	66	0	6
TAP	66	96	6
TAP	66	96	7
TAP	66	192	6
TAP	66	288	6
TAP	66	288	7
TAP	67	0	5
TAP	67	96	3
TAP	67	96	4
XTP	67	192	2
XTP	67	192	5
TTP	68	0	3	E	0	L1
TTP	68	96	2	B	0	L1
TTP	68	192	1	B	0	L1
TTP	69	0	5	E	0	L1
TTP	69	96	5	B	0	L1
TTP	69	192	6	B	0	L1
TTP	70	0	3	E	0	L1
TTP	70	96	2	B	0	L1
TTP	70	192	1	B	0	L1
TTP	71	0	5	E	0	L1
TTP	71	96	5	B	0	L1
TTP	71	192	6	B	0	L1
XTP	72	0	1
TAP	72	96	0
TAP	72	96	1
TAP	72	192	1
TAP	72	288	0
TAP	72	288	1
TAP	73	0	2
TAP	73	96	3
TAP	73	192	2
TAP	73	192	4
TAP	74	0	5
TAP	74	96	4
TAP	74	96	5
TAP	74	192	5
TAP	74	288	4
TAP	74	288	5
TAP	75	0	6
TAP	75	96	0
TAP	75	96	7
XTP	75	192	1
XTP	75	192	6
STR	76	0	5
SI_	76	0	5	96	144	0
STR	77	0	1
SCR	77	0	1	96	144	4
STR	78	0	5
SI_	78	0	5	96	144	0
STR	79	0	1
SCR	79	0	1	96	144	4
XTP	80	0	5

T_REC_TAP	169
T_REC_BRK	4
T_REC_XTP	21
T_REC_HLD	19
T_REC_XHO	1
T_REC_STR	15
T_REC_BST	0
T_REC_XST	1
T_REC_TTP	31
T_REC_THO	0
T_REC_SLD	16
T_REC_ALL	277
T_NUM_TAP	237
T_NUM_BRK	4
T_NUM_HLD	20
T_NUM_SLD	16
T_NUM_ALL	277
T_JUDGE_TAP	241
T_JUDGE_HLD	70
T_JUDGE_SLD	16
T_JUDGE_ALL	327
TTM_EACHPAIRS	53
TTM_SCR_TAP	118500
TTM_SCR_BRK	10400
TTM_SCR_HLD	20000
TTM_SCR_SLD	24000
TTM_SCR_ALL	172900
TTM_SCR_S	167350
TTM_SCR_SS	172500
TTM_RAT_ACV	10023

