VERSION	0.00.00	1.03.00
FES_MODE	0
BPM_DEF	130.000	130.000	130.000	130.000
MET_DEF	4	4
RESOLUTION	384
CLK_DEF	384
COMPATIBLE_CODE	MA2

BPM	0	0	130.000
MET	0	0	4	4

TAP	5	0	0
TAP	6	0	0
TAP	7	0	7
TAP	8	0	7
TAP	9	0	0
TAP	9	192	0
TAP	10	0	1
TAP	11	0	2
TAP	11	192	2
TAP	12	0	3
TAP	13	0	4
TAP	13	192	4
TAP	14	0	5
TAP	15	0	6
TAP	15	192	6
TAP	16	0	0
TAP	16	0	7
STR	17	0	6
SI_	17	0	6	96	288	2
STR	19	0	1
SI_	19	0	1	96	288	5
STR	21	0	7
SI_	21	0	7	96	288	4
STR	23	0	3
SI_	23	0	3	96	288	0
BRK	25	0	7
TAP	26	0	7
TAP	26	192	7
TAP	27	0	6
TAP	27	192	6
TAP	28	0	5
TAP	28	192	5
TAP	29	0	3
TAP	29	0	4
TAP	30	0	3
TAP	30	192	3
TAP	31	0	2
TAP	31	192	2
TAP	32	0	1
TAP	32	192	1
TAP	33	0	0
TAP	33	0	7
TAP	34	0	0
TAP	34	192	0
TAP	35	0	1
TAP	35	192	1
TAP	36	0	2
TAP	36	192	2
TAP	37	0	3
TAP	37	192	3
TAP	38	0	4
TAP	38	192	4
TAP	39	0	5
TAP	39	192	5
TAP	40	0	6
TAP	40	192	6
TAP	41	0	7
TAP	41	192	7
XHO	42	0	0	384
XHO	42	0	7	384
XHO	44	0	1	384
XHO	44	0	6	384
XHO	46	0	2	384
XHO	46	0	5	384
XHO	48	0	3	384
XHO	48	0	4	384
TTP	50	0	3	B	0	L1
TTP	51	0	4	B	0	L1
TTP	52	0	2	B	0	L1
TTP	53	0	5	B	0	L1
TTP	54	0	1	B	0	L1
TTP	55	0	6	B	0	L1
TTP	56	0	0	B	0	L1
TTP	57	0	7	B	0	L1
THO	58	0	0	384	C	0	L1
BRK	60	0	7
TAP	60	96	7
TAP	60	192	7
TAP	61	0	6
TAP	61	192	6
TAP	62	0	5
TAP	62	96	5
TAP	62	192	5
TAP	63	0	4
TAP	63	192	3
TAP	63	192	4
TAP	64	0	3
TAP	64	96	3
TAP	64	192	3
TAP	65	0	2
TAP	65	192	2
TAP	66	0	1
TAP	66	96	1
TAP	66	192	1
TAP	67	0	0
TAP	67	192	0
TAP	67	192	7
HLD	68	0	0	192
TAP	69	0	1
TAP	69	192	1
HLD	70	0	2	192
TAP	71	0	3
TAP	71	0	4
TAP	71	192	3
TAP	71	192	4
TAP	72	0	5
TAP	72	96	5
TAP	72	192	5
TAP	73	0	3
TAP	73	0	4
TAP	73	192	3
TAP	73	192	4
TAP	74	0	2
TAP	74	96	2
TAP	74	192	2
HLD	75	0	3	192
HLD	75	0	4	192
XTP	76	0	3
XTP	76	0	4
TTP	77	0	3	B	0	L1
TTP	77	0	4	B	0	L1
TTP	78	0	2	B	0	L1
TTP	78	0	5	B	0	L1
TTP	79	0	1	B	0	L1
TTP	79	0	6	B	0	L1
TTP	80	0	0	B	0	L1
TTP	80	0	7	B	0	L1

T_REC_TAP	86
T_REC_BRK	2
T_REC_XTP	2
T_REC_HLD	4
T_REC_XHO	8
T_REC_STR	4
T_REC_BST	0
T_REC_XST	0
T_REC_TTP	16
T_REC_THO	1
T_REC_SLD	4
T_REC_ALL	127
T_NUM_TAP	108
T_NUM_BRK	2
T_NUM_HLD	13
T_NUM_SLD	4
T_NUM_ALL	127
T_JUDGE_TAP	110
T_JUDGE_HLD	88
T_JUDGE_SLD	4
T_JUDGE_ALL	202
TTM_EACHPAIRS	15
TTM_SCR_TAP	54000
TTM_SCR_BRK	5200
TTM_SCR_HLD	13000
TTM_SCR_SLD	6000
TTM_SCR_ALL	78200
TTM_SCR_S	75700
TTM_SCR_SS	78000
TTM_RAT_ACV	10025

