VERSION	0.00.00	1.03.00
FES_MODE	0
BPM_DEF	136.000	136.000	136.000	136.000
MET_DEF	4	4
RESOLUTION	384
CLK_DEF	384
COMPATIBLE_CODE	MA2

BPM	0	0	136.000
MET	0	0	4	4

HLD	1	0	3	192
HLD	1	0	5	960
TTP	2	0	6	E	0	M1
TTP	2	96	5	E	0	M1
TTP	2	192	4	E	0	M1
TTP	2	288	3	E	0	M1
HLD	3	0	1	576
HLD	4	0	3	192
HLD	5	0	2	672
HLD	5	0	4	192
TTP	6	0	2	E	0	M1
TTP	6	96	3	E	0	M1
TTP	6	192	4	E	0	M1
TTP	6	288	5	E	0	M1
HLD	7	0	6	96
HLD	7	96	4	96
HLD	7	192	3	96
STR	7	288	1
SCL	7	288	1	96	192	2
TAP	8	0	7
TAP	8	192	6
TAP	8	288	5
TAP	9	0	3
TAP	9	0	4
TAP	9	96	2
STR	9	96	4
SXL	9	96	4	96	192	3
XHO	9	192	1	96
TAP	10	0	1
STR	10	96	1
SI_	10	96	1	96	48	3
TAP	11	0	6
STR	11	96	6
SI_	11	96	6	96	48	4
TAP	12	0	2
STR	12	96	2
SI_	12	96	2	96	48	4
STR	12	96	5
SI_	12	96	5	96	48	3
TAP	13	0	0
TAP	13	0	7
STR	13	96	1
SI_	13	96	1	96	48	4
TAP	13	144	1
TAP	13	192	5
STR	13	288	6
SI_	13	288	6	96	48	3
TAP	13	336	6
TAP	14	0	2
TAP	14	96	1
TAP	14	144	1
TAP	14	192	5
TAP	14	240	2
TAP	14	288	4
TAP	14	336	3
STR	15	0	3
SXR	15	0	3	96	336	4
STR	15	0	4
SXL	15	0	4	96	336	3
TAP	16	192	5
TAP	16	240	4
HLD	16	288	6	720
TTP	17	0	0	C	1	M1
TTP	17	336	6	E	0	M1
TTP	17	360	5	E	0	M1
TTP	18	0	4	E	0	M1
TAP	18	240	4
HLD	18	288	4	720
TTP	19	0	0	C	1	M1
TTP	19	336	4	E	0	M1
TTP	19	360	5	E	0	M1
TTP	20	0	6	E	0	M1
TAP	20	240	6
TAP	20	288	6
TAP	20	336	5
TAP	21	0	4
TAP	21	0	5
TAP	21	96	3
TAP	21	96	6
TAP	21	192	5
TAP	21	240	4
TAP	21	288	3
TAP	21	288	6
TAP	22	0	2
TAP	22	0	5
TAP	22	96	1
TAP	22	96	4
TAP	22	192	2
TAP	22	240	3
TAP	22	288	1
TAP	22	288	4
TAP	23	0	2
TAP	23	0	3
TAP	23	96	1
TAP	23	144	1
TAP	23	192	4
TAP	23	240	4
TAP	23	288	3
TAP	23	336	3
STR	24	0	6
SI_	24	0	6	96	48	4
STR	24	96	1
SI_	24	96	1	96	48	3
TAP	24	288	2
TAP	24	288	6
TAP	25	48	0
TAP	25	48	1
TAP	25	96	2
TAP	25	96	7
HLD	25	192	1	72
HLD	25	264	3	72
TAP	25	336	4
BST	26	0	2
SXL	26	0	2	96	216	5
BST	26	0	6
SXL	26	0	6	96	216	1
STR	27	0	2
SI_	27	0	2	96	48	6
TAP	27	0	6
STR	27	96	4
SI_	27	96	4	96	48	7
TAP	27	144	4
STR	27	192	1
SI_	27	192	1	96	48	5
STR	27	288	0
SCL	27	288	0	96	120	2
TAP	27	336	0
TAP	28	0	4
STR	28	96	0
SI_	28	96	0	96	48	4
TAP	28	144	0
TAP	28	192	7
TAP	28	288	2
TAP	28	288	6
STR	29	0	5
SI_	29	0	5	96	48	1
STR	29	96	3
SI_	29	96	3	96	48	0
TAP	29	144	3
STR	29	192	6
SI_	29	192	6	96	48	2
STR	29	288	7
SCR	29	288	7	96	120	5
TAP	29	336	7
TAP	30	0	4
STR	30	96	7
SI_	30	96	7	96	48	3
TAP	30	144	7
TAP	30	192	0
TAP	30	288	1
TAP	30	288	5
STR	31	0	6
SI_	31	0	6	96	48	1
TAP	31	96	3
TAP	31	144	2
STR	31	192	2
SI_	31	192	2	96	48	5
TAP	31	288	7
TAP	31	336	6
STR	32	0	6
SI_	32	0	6	96	48	1
STR	32	96	2
SI_	32	96	2	96	48	5
TAP	32	96	6
TAP	32	192	2
TAP	32	192	7
TAP	32	288	6
TAP	32	288	7
TAP	32	336	0
TAP	32	336	5
TAP	33	0	1
TAP	33	0	4
TAP	33	48	2
TAP	33	96	3
TAP	33	96	7
TAP	33	144	2
STR	33	144	6
SI_	33	144	6	96	48	2
TAP	33	240	1
STR	33	288	0
SI_	33	288	0	96	48	3
SI_	33	288	0	96	48	5
TAP	33	336	0
XTP	34	0	0
TAP	34	96	2
TAP	34	96	6
BRK	34	144	2
BRK	34	144	6
TAP	34	240	3
TAP	34	240	4
TAP	34	288	6
TAP	34	312	7
TAP	34	336	6
TAP	34	360	7
STR	35	0	6
SI_	35	0	6	96	48	2
STR	35	96	3
SI_	35	96	3	96	48	0
TAP	35	144	3
STR	35	192	5
SI_	35	192	5	96	48	1
XST	35	288	7
SLR	35	288	7	96	96	3
XTP	35	336	7
STR	36	0	3
SI_	36	0	3	96	48	5
STR	36	96	7
SI_	36	96	7	96	48	3
TAP	36	144	7
TAP	36	192	1
TAP	36	288	0
TAP	36	288	5
STR	37	0	1
SI_	37	0	1	96	48	5
STR	37	96	4
SI_	37	96	4	96	48	7
TAP	37	144	4
STR	37	192	2
SI_	37	192	2	96	48	6
STR	37	288	0
SLL	37	288	0	96	96	4
TAP	37	336	0
STR	38	0	4
SI_	38	0	4	96	48	2
STR	38	96	0
SI_	38	96	0	96	48	4
TAP	38	144	0
TAP	38	192	7
TAP	38	288	2
TAP	38	288	6
STR	39	0	4
SI_	39	0	4	96	48	7
STR	39	192	3
SI_	39	192	3	96	48	0
SI_	39	192	3	96	48	0
STR	40	0	4
SCR	40	0	4	96	48	7
STR	40	96	0
SI_	40	96	0	96	48	3
SI_	40	96	0	96	48	5
XTP	40	192	0
TAP	40	288	2
TAP	40	288	6
TAP	40	336	5
TAP	41	0	1
TAP	41	0	4
TAP	41	48	2
TAP	41	96	3
TAP	41	96	7
TAP	41	144	2
STR	41	144	6
SI_	41	144	6	96	48	2
STR	41	240	0
SCL	41	240	0	96	144	2
TAP	41	288	0
TAP	41	336	4
TAP	42	144	6
STR	42	192	6
SI_	42	192	6	96	48	2
STR	42	288	4
SCL	42	288	4	96	576	4
SCR	42	288	4	96	576	4
TAP	42	336	4
BRK	44	288	7
HLD	45	0	1	72
HLD	45	72	2	72
TAP	45	144	3
HLD	45	192	6	72
HLD	45	264	5	72
TAP	45	336	4
HLD	46	0	0	72
HLD	46	72	2	72
TAP	46	144	3
HLD	46	192	7	72
HLD	46	264	5	72
TAP	46	336	4
HLD	47	0	2	72
HLD	47	72	1	72
TAP	47	144	0
HLD	47	192	5	72
HLD	47	264	6	72
TAP	47	336	7
HLD	48	0	3	72
HLD	48	72	2	72
TAP	48	144	1
TAP	48	192	7
TAP	48	216	0
TAP	48	240	7
TAP	48	264	0
BRK	48	288	7
STR	49	0	0
SCR	49	0	0	96	2016	7
TTP	49	192	0	E	0	M1
TTP	50	192	7	E	0	M1
TTP	51	192	6	E	0	M1
TTP	52	192	5	E	0	M1
TTP	53	192	4	E	0	M1
THO	54	192	0	192	C	0	M1
TTP	55	0	0	E	0	M1
BRK	57	0	0
BRK	57	0	7
TAP	57	96	1
TAP	57	96	3
TAP	57	144	2
TAP	57	192	3
TAP	57	192	7
TAP	57	240	6
TAP	57	288	0
TAP	57	288	5
TAP	57	336	1
TAP	58	0	2
TAP	58	0	3
TAP	58	48	4
TAP	58	96	3
TAP	58	96	5
TAP	58	144	6
TAP	58	192	0
TAP	58	192	7
TAP	58	240	1
STR	58	288	2
SV_	58	288	2	96	48	7
TAP	58	288	4
TAP	58	336	5
HLD	59	0	6	96
TAP	59	144	4
TAP	59	168	5
TAP	59	192	4
TAP	59	240	3
TAP	59	240	6
TAP	59	288	1
TAP	59	336	2
TAP	59	336	4
TAP	60	0	5
STR	60	48	3
SUR	60	48	3	96	144	4
TAP	60	96	3
TTP	60	144	0	C	1	M1
HLD	61	0	6	72
TAP	61	72	4
TAP	61	96	5
TAP	61	144	3
TAP	61	144	6
HLD	61	192	1	72
TAP	61	264	3
TAP	61	288	2
TAP	61	336	1
TAP	61	336	4
HLD	62	0	7	72
TAP	62	72	4
TAP	62	96	6
TAP	62	144	3
TAP	62	144	5
STR	62	192	2
SI_	62	192	2	96	48	6
TAP	62	192	4
TAP	62	288	7
TAP	63	0	1
TAP	63	0	4
TAP	63	48	2
TAP	63	48	5
TAP	63	96	3
TAP	63	96	6
TAP	63	144	4
HLD	63	144	7	96
TAP	63	240	0
TAP	63	288	1
TAP	63	288	7
TAP	63	336	2
TAP	63	336	6
TAP	64	0	3
TAP	64	0	5
TAP	64	48	2
TAP	64	96	1
TAP	64	96	4
TAP	64	144	0
TAP	64	168	7
TAP	64	192	1
TAP	64	216	6
TAP	64	240	2
TAP	64	264	7
BRK	64	288	0
STR	65	0	1
SI_	65	0	1	96	48	5
TAP	65	0	5
STR	65	96	7
SI_	65	96	7	96	48	4
TAP	65	144	7
STR	65	192	2
SI_	65	192	2	96	48	6
STR	65	288	3
SCR	65	288	3	96	120	1
TAP	65	336	3
TAP	66	0	7
STR	66	96	3
SI_	66	96	3	96	48	0
TAP	66	144	3
TAP	66	192	4
TAP	66	288	1
TAP	66	288	5
STR	67	0	6
SI_	67	0	6	96	48	2
STR	67	96	0
SI_	67	96	0	96	48	3
TAP	67	144	0
STR	67	192	5
SI_	67	192	5	96	48	1
STR	67	288	4
SCL	67	288	4	96	120	6
TAP	67	336	4
TAP	68	0	7
STR	68	96	4
SI_	68	96	4	96	48	7
TAP	68	144	4
TAP	68	192	3
BRK	68	288	2
BRK	68	288	6
STR	69	0	1
SI_	69	0	1	96	48	6
TAP	69	96	4
TAP	69	144	5
STR	69	192	5
SI_	69	192	5	96	48	2
TAP	69	288	0
TAP	69	336	1
STR	70	0	1
SI_	70	0	1	96	48	6
TAP	70	96	1
STR	70	96	5
SI_	70	96	5	96	48	2
TAP	70	192	0
TAP	70	192	5
TAP	70	288	0
TAP	70	288	1
TAP	70	336	2
TAP	70	336	7
TAP	71	0	3
TAP	71	0	6
TAP	71	48	5
TAP	71	96	0
TAP	71	96	4
STR	71	144	1
SI_	71	144	1	96	48	5
TAP	71	144	5
TAP	71	240	6
STR	71	288	7
SI_	71	288	7	96	48	2
SI_	71	288	7	96	48	4
TAP	71	336	7
XTP	72	0	7
TAP	72	96	1
TAP	72	96	5
BRK	72	144	1
BRK	72	144	5
TAP	72	240	3
TAP	72	240	4
TAP	72	288	1
TAP	72	312	0
TAP	72	336	1
TAP	72	360	0
STR	73	0	2
SI_	73	0	2	96	48	6
STR	73	96	4
SI_	73	96	4	96	48	7
TAP	73	144	4
TAP	73	192	3
TAP	73	288	0
TAP	73	288	1
TAP	73	336	0
TAP	73	336	7
TAP	74	0	6
STR	74	0	7
SI_	74	0	7	96	48	3
STR	74	96	0
SI_	74	96	0	96	48	5
STR	74	96	7
SI_	74	96	7	96	48	5
STR	74	192	0
SI_	74	192	0	96	48	2
STR	74	192	7
SI_	74	192	7	96	48	2
STR	74	288	0
SI_	74	288	0	96	48	4
STR	74	288	7
SI_	74	288	7	96	48	3
BRK	75	0	0
BRK	75	0	7
TAP	75	96	1
TAP	75	96	6
TAP	75	144	2
TAP	75	192	3
TAP	75	192	7
TAP	75	240	6
STR	75	288	0
SCL	75	288	0	96	144	2
TAP	75	288	5
TAP	75	336	1
TAP	76	0	2
TAP	76	96	1
TAP	76	144	0
STR	76	192	0
SI_	76	192	0	96	48	4
TAP	76	288	0
TAP	76	288	7
HLD	77	0	3	96
HLD	77	0	6	96
TAP	77	144	1
TAP	77	144	4
HLD	77	192	1	96
HLD	77	192	4	96
TAP	77	336	3
TAP	77	336	6
TAP	78	0	3
STR	78	0	6
SI_	78	0	6	96	48	1
STR	78	96	0
SI_	78	96	0	96	48	3
SUR	78	96	0	96	48	4
XTP	78	192	0
TAP	78	288	2
TAP	78	288	6
TAP	78	336	5
TAP	79	0	1
TAP	79	0	4
TAP	79	48	2
TAP	79	96	3
TAP	79	96	7
TAP	79	144	2
STR	79	144	6
SI_	79	144	6	96	48	2
STR	79	240	0
SCR	79	240	0	96	336	7
TAP	79	288	0
TTP	79	336	0	C	1	M1
TTP	81	0	5	B	0	M1
TTP	81	96	0	C	0	M1
HLD	81	192	1	24
TTP	82	0	6	B	0	M1
TTP	82	96	0	C	0	M1
HLD	82	192	2	24
TTP	83	0	7	B	0	M1
TTP	83	96	0	C	0	M1
HLD	83	192	3	24
STR	84	0	7
SCL	84	0	7	96	816	0
HLD	84	192	4	24
HLD	85	192	5	24
HLD	86	192	6	24
BRK	86	288	7

T_REC_TAP	277
T_REC_BRK	14
T_REC_XTP	5
T_REC_HLD	42
T_REC_XHO	1
T_REC_STR	83
T_REC_BST	2
T_REC_XST	1
T_REC_TTP	30
T_REC_THO	1
T_REC_SLD	92
T_REC_ALL	548
T_NUM_TAP	396
T_NUM_BRK	16
T_NUM_HLD	44
T_NUM_SLD	92
T_NUM_ALL	548
T_JUDGE_TAP	412
T_JUDGE_HLD	156
T_JUDGE_SLD	92
T_JUDGE_ALL	660
TTM_EACHPAIRS	92
TTM_SCR_TAP	198000
TTM_SCR_BRK	41600
TTM_SCR_HLD	44000
TTM_SCR_SLD	138000
TTM_SCR_ALL	421600
TTM_SCR_S	407400
TTM_SCR_SS	420000
TTM_RAT_ACV	10038

