VERSION	0.00.00	1.03.00
FES_MODE	0
BPM_DEF	136.000	136.000	136.000	136.000
MET_DEF	4	4
RESOLUTION	384
CLK_DEF	384
COMPATIBLE_CODE	MA2

BPM	0	0	136.000
MET	0	0	4	4

HLD	1	0	5	192
TTP	2	0	5	E	0	M1
TTP	2	96	4	E	0	M1
TTP	2	192	3	E	0	M1
HLD	3	0	2	192
HLD	4	0	4	192
HLD	5	0	2	192
TTP	6	0	3	E	0	M1
TTP	6	96	4	E	0	M1
TTP	6	192	5	E	0	M1
HLD	7	0	5	192
HLD	8	0	3	192
HLD	8	0	4	192
TAP	9	0	5
TAP	9	96	5
TAP	9	192	7
TAP	9	288	7
TAP	10	0	1
TAP	10	96	1
TAP	10	192	3
TAP	10	288	3
TAP	11	0	2
TAP	11	96	2
TAP	11	192	3
TAP	11	288	3
TAP	12	0	4
TAP	12	96	4
TAP	12	192	3
TAP	12	288	3
TAP	13	0	4
STR	13	96	4
SCR	13	96	4	96	144	7
TAP	14	0	0
STR	14	96	0
SCR	14	96	0	96	144	3
HLD	15	0	5	672
HLD	16	0	2	288
STR	17	0	6
SCL	17	0	6	96	144	3
STR	18	0	1
SCR	18	0	1	96	144	4
STR	19	0	4
SI_	19	0	4	96	144	1
SI_	19	0	4	96	144	7
STR	20	0	0
SI_	20	0	0	96	144	4
TAP	21	0	7
TAP	21	96	7
TAP	21	192	5
TAP	21	288	4
TAP	22	0	3
TAP	22	96	3
TAP	22	192	1
TAP	22	288	0
TAP	23	0	7
TAP	23	96	7
TAP	23	192	5
TAP	23	288	4
TAP	24	0	3
TAP	24	96	3
TAP	24	192	1
TAP	24	192	5
TAP	24	288	2
TAP	24	288	4
XTP	25	48	0
XHO	25	96	0	96
STR	25	192	7
SCL	25	192	7	96	288	0
STR	27	0	1
SCR	27	0	1	96	96	4
HLD	27	192	5	192
HLD	28	0	7	96
HLD	28	96	0	96
HLD	28	192	2	96
TAP	28	288	4
STR	29	0	6
SCL	29	0	6	96	96	3
HLD	29	192	2	192
HLD	30	0	0	96
HLD	30	96	7	96
HLD	30	192	5	96
TAP	30	288	3
STR	31	0	1
SI_	31	0	1	96	96	4
STR	31	192	5
SI_	31	192	5	96	96	0
STR	32	0	1
SCR	32	0	1	96	96	4
TAP	32	192	7
TAP	32	288	7
HLD	33	0	1	96
HLD	33	96	3	96
HLD	33	192	4	96
HLD	33	288	6	96
STR	34	0	0
SUL	34	0	0	96	192	7
STR	35	0	6
SCL	35	0	6	96	96	3
HLD	35	192	2	192
HLD	36	0	0	96
HLD	36	96	7	96
HLD	36	192	5	96
TAP	36	288	3
STR	37	0	1
SCR	37	0	1	96	96	4
HLD	37	192	5	192
HLD	38	0	7	96
HLD	38	96	0	96
HLD	38	192	2	96
TAP	38	288	4
STR	39	0	5
SI_	39	0	5	96	96	2
STR	39	192	1
SI_	39	192	1	96	96	6
STR	40	0	5
SCL	40	0	5	96	96	2
TAP	40	192	0
TAP	40	288	0
HLD	41	0	6	96
HLD	41	96	4	96
HLD	41	192	3	96
TAP	41	288	0
TAP	41	336	0
TAP	42	144	4
STR	42	192	4
SCR	42	192	4	96	480	3
BRK	44	288	0
TAP	45	0	1
TAP	45	0	3
TAP	45	72	2
TAP	45	72	4
XTP	45	144	3
XTP	45	144	5
XTP	45	192	3
XTP	45	192	5
TAP	45	264	2
TAP	45	264	4
XTP	45	336	1
XTP	45	336	3
XTP	46	0	1
XTP	46	0	3
TAP	46	72	2
TAP	46	72	4
XTP	46	144	3
XTP	46	144	5
XTP	46	192	3
XHO	46	192	5	96
TAP	46	288	4
TAP	47	0	4
TAP	47	0	6
TAP	47	72	3
TAP	47	72	5
XTP	47	144	2
XTP	47	144	4
XTP	47	192	2
XTP	47	192	4
TAP	47	264	3
TAP	47	264	5
XTP	47	336	4
XTP	47	336	6
XTP	48	0	4
XTP	48	0	6
TAP	48	72	3
TAP	48	72	5
XTP	48	144	2
XTP	48	144	4
XHO	48	192	2	192
XHO	48	192	4	192
TTP	49	192	0	C	0	M1
TTP	49	192	3	E	0	M1
TTP	50	192	0	C	0	M1
TTP	50	192	4	E	0	M1
TTP	51	192	0	C	0	M1
TTP	51	192	5	E	0	M1
TTP	52	192	0	C	0	M1
TTP	52	192	6	E	0	M1
TTP	53	192	0	C	0	M1
TTP	53	192	7	E	0	M1
TTP	54	192	0	E	0	M1
THO	54	192	0	192	C	0	M1
XTP	57	0	0
XTP	57	0	7
XTP	57	96	1
XTP	57	96	6
TAP	57	192	2
TAP	57	240	2
TAP	57	288	3
TAP	58	0	5
TAP	58	48	5
TAP	58	96	4
TAP	58	192	3
TAP	58	192	5
TAP	58	288	2
TAP	58	288	6
TAP	59	0	1
TAP	59	0	7
TAP	59	144	6
HLD	59	192	6	192
TAP	59	288	4
HLD	60	0	1	192
TAP	60	96	3
TAP	60	192	7
TAP	60	288	2
TAP	60	288	6
STR	61	0	1
SI_	61	0	1	96	96	5
STR	61	192	6
SI_	61	192	6	96	96	2
STR	62	0	0
SI_	62	0	0	96	96	4
XTP	62	192	7
TAP	62	288	7
TAP	63	0	5
TAP	63	96	4
TAP	63	192	3
STR	63	288	2
SXR	63	288	2	96	240	4
STR	65	0	5
SCR	65	0	5	96	96	0
HLD	65	192	1	192
HLD	66	0	3	96
HLD	66	96	4	96
HLD	66	192	6	96
TAP	66	288	0
STR	67	0	2
SCL	67	0	2	96	96	7
HLD	67	192	6	192
HLD	68	0	4	96
HLD	68	96	3	96
HLD	68	192	1	96
TAP	68	288	6
STR	69	0	5
SI_	69	0	5	96	96	0
STR	69	192	1
SI_	69	192	1	96	96	4
TAP	70	0	7
TAP	70	96	7
TAP	70	192	0
TAP	70	192	6
TAP	70	288	0
TAP	70	288	6
HLD	71	0	5	96
HLD	71	96	7	96
HLD	71	192	0	96
HLD	71	288	2	96
STR	72	0	4
SUL	72	0	4	96	192	3
STR	73	0	2
SCL	73	0	2	96	96	7
HLD	73	192	6	192
HLD	74	0	4	96
HLD	74	96	3	96
HLD	74	192	1	96
HLD	74	288	6	96
BRK	75	0	0
TAP	75	144	7
STR	75	192	7
SI_	75	192	7	96	96	3
STR	76	0	0
SI_	76	0	0	96	96	4
HLD	76	192	7	192
TAP	77	0	4
TAP	77	96	4
TAP	77	192	3
TAP	77	192	5
TAP	77	288	2
TAP	77	288	6
TAP	78	0	3
TAP	78	96	3
TAP	78	192	2
TAP	78	192	4
TAP	78	288	1
TAP	78	288	5
HLD	79	0	6	96
HLD	79	96	4	96
HLD	79	192	3	96
STR	79	288	1
SCR	79	288	1	96	288	0
TTP	81	192	0	C	0	M1
TTP	81	192	0	E	0	M1
TTP	82	192	0	C	0	M1
TTP	82	192	2	E	0	M1
TTP	83	192	0	C	0	M1
TTP	83	192	4	E	0	M1
TTP	84	192	0	C	0	M1
TTP	84	192	6	E	0	M1
TTP	85	192	0	C	0	M1
TTP	85	192	0	E	0	M1
XTP	86	288	0
XTP	86	288	7
BRK	87	0	1
BRK	87	0	6

T_REC_TAP	107
T_REC_BRK	4
T_REC_XTP	29
T_REC_HLD	55
T_REC_XHO	4
T_REC_STR	32
T_REC_BST	0
T_REC_XST	0
T_REC_TTP	27
T_REC_THO	1
T_REC_SLD	33
T_REC_ALL	292
T_NUM_TAP	195
T_NUM_BRK	4
T_NUM_HLD	60
T_NUM_SLD	33
T_NUM_ALL	292
T_JUDGE_TAP	199
T_JUDGE_HLD	176
T_JUDGE_SLD	33
T_JUDGE_ALL	408
TTM_EACHPAIRS	37
TTM_SCR_TAP	97500
TTM_SCR_BRK	10400
TTM_SCR_HLD	60000
TTM_SCR_SLD	49500
TTM_SCR_ALL	217400
TTM_SCR_S	210500
TTM_SCR_SS	217000
TTM_RAT_ACV	10018

