VERSION	0.00.00	1.03.00
FES_MODE	0
BPM_DEF	136.000	136.000	136.000	136.000
MET_DEF	4	4
RESOLUTION	384
CLK_DEF	384
COMPATIBLE_CODE	MA2

BPM	0	0	136.000
MET	0	0	4	4

XHO	1	0	2	192
HLD	1	192	3	192
HLD	2	0	4	192
TAP	2	192	5
STR	3	0	6
SCL	3	0	6	96	144	3
STR	4	0	2
SCL	4	0	2	96	144	7
HLD	5	0	6	192
HLD	5	192	7	192
HLD	6	0	0	192
TAP	6	192	1
STR	7	0	2
SCL	7	0	2	96	144	7
STR	8	0	6
SCL	8	0	6	96	144	3
HLD	9	0	2	96
TAP	9	96	3
TAP	9	192	3
HLD	10	0	5	96
TAP	10	96	4
TAP	10	192	4
HLD	11	0	2	96
TAP	11	96	3
TAP	11	192	3
HLD	12	0	4	96
HLD	12	0	5	96
TAP	12	192	4
TAP	12	192	5
HLD	13	0	6	96
TAP	13	96	7
TAP	13	192	7
HLD	14	0	1	96
TAP	14	96	0
TAP	14	192	0
HLD	15	0	6	96
TAP	15	96	7
TAP	15	192	7
TAP	16	0	0
TAP	16	96	0
TAP	16	192	1
TAP	16	192	7
STR	17	0	0
SCR	17	0	0	96	384	5
STR	19	0	7
SCL	19	0	7	96	384	2
TAP	21	0	1
TAP	21	96	1
TAP	21	192	0
TAP	21	192	1
TAP	22	0	6
TAP	22	96	6
TAP	22	192	6
TAP	22	192	7
TAP	23	0	0
TAP	23	96	0
TAP	23	192	7
TAP	23	288	7
STR	24	0	0
SI_	24	0	0	96	144	3
XST	25	0	3
SCL	25	0	3	96	144	0
XST	25	0	4
SCR	25	0	4	96	144	7
TTP	26	0	0	C	1	L1
BRK	27	0	6
TAP	27	96	6
TAP	27	192	7
TAP	27	288	7
TAP	28	0	0
TAP	28	96	0
TAP	28	192	1
TAP	28	192	7
TAP	29	0	2
TAP	29	96	2
TAP	29	192	3
TAP	29	288	3
TAP	30	0	4
TAP	30	96	4
TAP	30	192	3
TAP	30	192	5
STR	31	0	6
SUL	31	0	6	96	144	2
STR	32	0	1
SUR	32	0	1	96	144	5
TAP	33	0	6
TAP	33	96	7
TAP	33	192	0
TAP	33	288	1
XHO	34	0	0	144
XHO	34	0	7	144
BRK	35	0	1
TAP	35	96	1
TAP	35	192	0
TAP	35	288	0
TAP	36	0	7
TAP	36	96	7
TAP	36	192	0
TAP	36	192	6
TAP	37	0	5
TAP	37	96	5
TAP	37	192	4
TAP	37	288	4
TAP	38	0	3
TAP	38	96	3
TAP	38	192	2
TAP	38	192	4
STR	39	0	1
SCR	39	0	1	96	144	4
STR	40	0	5
SCR	40	0	5	96	144	0
TAP	41	0	1
TAP	41	96	1
TAP	41	192	0
TAP	41	288	0
TAP	42	0	7
TAP	42	96	7
TAP	42	192	6
TAP	42	288	6
XST	43	0	0
SXL	43	0	0	96	480	3
XST	43	0	7
SXR	43	0	7	96	480	4
XTP	45	0	5
TAP	45	96	5
TAP	45	192	4
TAP	46	0	2
TAP	46	96	2
TAP	46	192	3
TAP	47	0	5
TAP	47	96	5
TAP	47	192	4
TAP	48	0	3
TAP	48	96	3
TAP	48	192	2
TAP	48	192	4
TTP	49	0	5	B	0	L1
TTP	50	0	4	B	0	L1
TTP	51	0	3	B	0	L1
TTP	52	0	2	B	0	L1
TTP	53	0	1	B	0	L1
TTP	54	0	0	B	0	L1
TTP	55	0	0	C	0	L1
XST	57	0	7
SI_	57	0	7	96	144	4
STR	58	0	3
SI_	58	0	3	96	192	0
STR	59	0	7
SI_	59	0	7	96	192	4
TAP	60	0	3
TAP	60	96	3
TAP	60	192	3
TAP	60	192	4
STR	61	0	2
SI_	61	0	2	96	144	5
STR	62	0	6
SI_	62	0	6	96	144	3
TAP	63	0	2
TAP	63	96	2
TAP	63	192	3
TAP	63	288	3
XHO	64	0	3	144
XHO	64	0	4	144
BRK	65	0	5
TAP	65	96	5
TAP	65	192	4
TAP	65	192	5
TAP	65	288	4
TAP	65	288	5
TAP	66	0	6
TAP	66	96	7
TAP	66	192	0
TAP	66	192	6
TAP	67	0	1
TAP	67	96	1
TAP	67	192	0
TAP	67	192	1
TAP	67	288	0
TAP	67	288	1
TAP	68	0	2
TAP	68	96	3
TAP	68	192	2
TAP	68	192	4
STR	69	0	5
SCR	69	0	5	96	144	0
STR	70	0	1
SCR	70	0	1	96	144	4
TAP	71	0	5
TAP	71	96	4
TAP	71	192	3
TAP	71	288	2
XHO	72	0	3	144
XHO	72	0	4	144
BRK	73	0	2
TAP	73	96	2
TAP	73	192	2
TAP	73	192	3
TAP	73	288	2
TAP	73	288	3
TAP	74	0	1
TAP	74	96	0
TAP	74	192	7
TAP	74	288	6
TAP	75	0	5
TAP	75	96	5
TAP	75	192	4
TAP	75	192	5
TAP	75	288	4
TAP	75	288	5
TAP	76	0	6
TAP	76	96	0
TAP	76	96	7
TAP	76	192	1
TAP	76	192	6
STR	77	0	2
SCL	77	0	2	96	144	7
STR	78	0	6
SCL	78	0	6	96	144	3
TAP	79	0	2
TAP	79	96	1
TAP	79	192	0
TAP	79	288	7
XST	80	0	0
SCR	80	0	0	96	144	3
XST	80	0	7
SCL	80	0	7	96	144	4
HLD	81	0	5	192
HLD	82	0	2	192
STR	83	0	4
SCR	83	0	4	96	480	3
THO	85	0	0	768	C	1	L1

T_REC_TAP	141
T_REC_BRK	4
T_REC_XTP	1
T_REC_HLD	15
T_REC_XHO	7
T_REC_STR	20
T_REC_BST	0
T_REC_XST	7
T_REC_TTP	8
T_REC_THO	1
T_REC_SLD	27
T_REC_ALL	231
T_NUM_TAP	177
T_NUM_BRK	4
T_NUM_HLD	23
T_NUM_SLD	27
T_NUM_ALL	231
T_JUDGE_TAP	181
T_JUDGE_HLD	82
T_JUDGE_SLD	27
T_JUDGE_ALL	290
TTM_EACHPAIRS	29
TTM_SCR_TAP	88500
TTM_SCR_BRK	10400
TTM_SCR_HLD	23000
TTM_SCR_SLD	40500
TTM_SCR_ALL	162400
TTM_SCR_S	157150
TTM_SCR_SS	162000
TTM_RAT_ACV	10024

