VERSION	0.00.00	1.03.00
FES_MODE	0
BPM_DEF	137.000	137.000	137.000	137.000
MET_DEF	4	4
RESOLUTION	384
CLK_DEF	384
COMPATIBLE_CODE	MA2

BPM	0	0	137.000
MET	0	0	4	4

HLD	2	0	0	24
TTP	2	96	4	B	0	M1
TTP	2	192	0	C	0	M1
HLD	3	0	1	24
TTP	3	96	5	B	0	M1
TTP	3	192	0	C	0	M1
HLD	4	0	2	24
TTP	4	96	6	B	0	M1
TTP	4	192	0	C	0	M1
HLD	5	0	3	24
TTP	5	96	7	B	0	M1
TTP	5	192	0	C	0	M1
HLD	6	0	4	24
TTP	6	96	0	B	0	M1
TTP	6	192	0	C	0	M1
HLD	7	0	5	24
TTP	7	96	1	B	0	M1
TTP	7	192	0	C	0	M1
HLD	8	0	6	24
TTP	8	96	2	B	0	M1
TTP	8	192	0	C	0	M1
STR	9	0	0
SCL	9	0	0	96	576	1
HLD	9	0	7	384
TAP	11	0	2
TAP	11	0	3
TAP	11	96	2
TAP	11	96	4
TAP	11	192	5
TAP	11	240	5
TAP	11	288	3
TAP	11	336	3
STR	12	0	6
SI_	12	0	6	96	48	4
TAP	12	48	6
STR	12	96	3
SI_	12	96	3	96	48	1
TAP	12	144	3
STR	12	192	6
SCR	12	192	6	96	72	1
TAP	12	240	6
XTP	12	288	3
TAP	13	0	3
TAP	13	96	2
TAP	13	96	4
TAP	13	192	2
TAP	13	240	2
TAP	13	288	4
TAP	13	336	4
STR	14	0	1
SI_	14	0	1	96	48	3
TAP	14	48	1
STR	14	96	4
SI_	14	96	4	96	48	6
TAP	14	144	4
STR	14	192	1
SCL	14	192	1	96	72	6
TAP	14	240	1
XTP	14	288	4
TAP	15	0	4
TAP	15	96	3
TAP	15	96	5
HLD	15	192	5	72
HLD	15	264	4	72
TAP	15	336	3
STR	16	0	2
SI_	16	0	2	96	48	0
TAP	16	48	2
STR	16	96	5
SCL	16	96	5	96	72	2
TAP	16	144	5
XTP	16	192	0
STR	16	288	1
SUR	16	288	1	96	288	4
SXR	16	288	1	96	288	4
TAP	18	0	5
TAP	18	48	4
TAP	18	96	3
HLD	18	192	1	72
HLD	18	264	2	72
TAP	18	336	3
STR	19	0	3
SI_	19	0	3	96	48	0
TAP	19	0	4
XTP	19	96	5
TAP	19	192	2
TAP	19	240	2
TAP	19	288	3
TAP	19	336	3
STR	20	0	1
SI_	20	0	1	96	48	3
TAP	20	48	1
STR	20	96	4
SI_	20	96	4	96	48	6
TAP	20	144	4
STR	20	192	1
SCL	20	192	1	96	72	6
TAP	20	240	1
XTP	20	288	4
TAP	21	0	4
TAP	21	96	3
TAP	21	96	5
TAP	21	192	4
TAP	21	240	3
TAP	21	288	5
TAP	21	336	5
TAP	22	0	4
STR	22	0	6
SI_	22	0	6	96	48	4
STR	22	96	3
SI_	22	96	3	96	48	1
TAP	22	144	3
STR	22	192	6
SCR	22	192	6	96	72	1
TAP	22	240	6
XTP	22	288	3
TAP	23	0	3
TAP	23	96	2
TAP	23	96	4
TAP	23	192	2
TAP	23	240	3
TAP	23	288	1
TAP	23	336	1
STR	24	0	5
SI_	24	0	5	96	48	7
TAP	24	48	5
STR	24	96	2
SCR	24	96	2	96	72	5
TAP	24	144	2
XTP	24	192	7
TAP	24	288	6
TAP	24	336	6
TAP	25	0	3
TAP	25	0	5
TAP	25	48	4
TAP	25	96	3
TAP	25	144	2
TAP	25	144	4
TAP	25	192	3
TAP	25	240	4
TAP	25	288	3
TAP	25	288	5
TAP	25	336	2
TAP	25	336	6
TAP	26	0	7
TAP	26	48	0
TAP	26	48	6
TAP	26	96	1
TAP	26	96	5
TAP	26	192	0
TAP	26	240	0
STR	26	288	6
SCL	26	288	6	96	168	1
TAP	26	336	6
TTP	27	0	0	C	1	M1
STR	27	288	0
SCR	27	288	0	96	192	6
TTP	28	0	0	C	1	M1
STR	28	288	7
SCL	28	288	7	96	192	1
TTP	29	0	0	C	1	M1
STR	29	288	0
SCR	29	288	0	96	192	6
TTP	30	0	0	C	1	M1
TAP	30	288	7
TAP	31	0	4
TAP	31	0	5
TAP	31	96	3
TAP	31	96	6
TAP	31	168	5
TAP	31	192	4
TAP	31	240	4
TAP	31	288	3
TAP	31	288	6
TAP	32	0	2
TAP	32	0	5
TAP	32	96	1
TAP	32	96	4
TAP	32	168	2
TAP	32	192	3
TAP	32	240	3
TAP	32	288	1
TAP	32	288	4
TAP	33	0	2
TAP	33	0	5
TAP	33	96	3
TAP	33	96	6
TAP	33	168	5
TAP	33	192	4
TAP	33	240	4
STR	33	288	3
SCL	33	288	3	96	144	5
TAP	33	288	6
TTP	34	0	0	C	1	M1
STR	34	288	0
SI_	34	288	0	96	48	4
TAP	34	288	4
BRK	35	0	7
TAP	35	96	2
TAP	35	96	6
TAP	35	192	6
TAP	35	216	7
TAP	35	240	6
TAP	35	264	7
XTP	35	288	6
TAP	35	336	0
TAP	35	336	5
TAP	36	0	1
TAP	36	24	0
TAP	36	48	1
TAP	36	72	0
XTP	36	96	1
TAP	36	144	2
TAP	36	144	7
TAP	36	192	5
TAP	36	216	4
TAP	36	264	2
TAP	36	288	3
TAP	36	336	1
TAP	36	336	5
STR	37	0	0
SI_	37	0	0	96	48	3
STR	37	0	6
SI_	37	0	6	96	48	3
XTP	37	96	0
XTP	37	96	6
TAP	37	192	2
TAP	37	216	3
TAP	37	240	2
TAP	37	264	3
XTP	37	288	2
TAP	37	336	1
TAP	37	336	4
TAP	38	0	5
TAP	38	24	4
TAP	38	48	5
TAP	38	72	4
XTP	38	96	5
TAP	38	144	3
TAP	38	144	6
TAP	38	192	1
TAP	38	216	0
STR	38	264	6
SCR	38	264	6	96	120	5
TAP	38	288	7
TTP	38	336	0	C	1	M1
STR	39	144	1
SI_	39	144	1	96	48	4
TAP	39	240	0
TAP	39	288	7
STR	39	336	6
SI_	39	336	6	96	48	1
TAP	40	48	2
STR	40	96	2
SCR	40	96	2	96	48	5
TAP	40	144	2
STR	40	192	6
SCR	40	192	6	96	48	1
TAP	40	240	6
STR	40	288	3
SI_	40	288	3	96	48	0
TAP	40	336	3
XTP	41	0	4
TAP	41	96	6
TAP	41	96	7
XTP	41	144	0
XTP	41	144	5
TAP	41	240	0
TAP	41	240	1
TAP	41	288	2
TAP	41	288	7
TAP	41	336	3
TAP	41	336	6
HLD	42	0	3	72
HLD	42	72	1	72
TAP	42	144	0
XTP	42	192	2
XTP	42	192	7
STR	42	288	6
SI_	42	288	6	96	48	2
TAP	42	312	7
TAP	42	336	6
TAP	42	360	7
BRK	43	0	6
TAP	43	96	0
TAP	43	96	4
TAP	43	192	1
TAP	43	216	0
TAP	43	240	1
TAP	43	264	0
XTP	43	288	1
TAP	43	336	2
TAP	43	336	7
TAP	44	0	6
TAP	44	24	7
TAP	44	48	6
TAP	44	72	7
XTP	44	96	6
TAP	44	144	0
TAP	44	144	5
TAP	44	192	2
TAP	44	216	3
TAP	44	264	5
TAP	44	288	4
TAP	44	336	2
TAP	44	336	6
STR	45	0	1
SI_	45	0	1	96	48	4
STR	45	0	7
SI_	45	0	7	96	48	4
XTP	45	96	1
XTP	45	96	7
TAP	45	192	5
TAP	45	216	4
TAP	45	240	5
TAP	45	264	4
XTP	45	288	5
TAP	45	336	3
TAP	45	336	6
STR	46	0	1
SI_	46	0	1	96	48	3
TAP	46	48	7
STR	46	96	6
SI_	46	96	6	96	48	4
TAP	46	144	0
STR	46	192	1
SI_	46	192	1	96	48	4
TAP	46	240	7
STR	46	288	6
SXL	46	288	6	96	192	1
TAP	46	336	0
BRK	47	0	2
STR	47	288	2
SXL	47	288	2	96	192	5
BRK	48	0	7
TAP	48	240	7
STR	48	288	2
SXL	48	288	2	96	288	5
STR	48	288	6
SXL	48	288	6	96	288	1
TAP	48	336	2
TAP	48	336	6
BRK	49	0	2
BRK	49	0	6
TAP	50	0	0
TAP	50	0	7
TAP	50	48	1
TAP	50	48	6
TAP	50	96	2
STR	50	96	5
SUL	50	96	5	96	144	2
SUL	50	96	5	96	144	3
TAP	51	0	1
TAP	51	48	1
TAP	51	96	4
TAP	51	144	4
TAP	51	192	2
TAP	51	240	3
TAP	51	288	5
TAP	51	336	4
TAP	52	0	3
TAP	52	48	3
TAP	52	96	5
TAP	52	144	5
TAP	52	192	3
TAP	52	240	2
TAP	52	288	4
TAP	52	336	5
TAP	53	0	2
TAP	53	48	2
TAP	53	96	4
TAP	53	144	4
TAP	53	192	2
TAP	53	240	3
TAP	53	288	5
TAP	53	336	4
TAP	54	0	3
TAP	54	48	3
TAP	54	96	5
TAP	54	144	5
TAP	54	192	4
TAP	54	240	3
XTP	54	288	2
XTP	54	288	4
TAP	55	0	1
HLD	55	48	1	144
TAP	55	96	3
TAP	55	144	4
TAP	55	192	5
HLD	55	240	5	144
TAP	55	288	4
TAP	55	336	3
HLD	56	0	2	96
TAP	56	48	3
HLD	56	96	5	96
TAP	56	144	4
HLD	56	192	3	48
TAP	56	240	4
XTP	56	288	3
XTP	56	288	5
TAP	57	0	6
HLD	57	48	6	144
TAP	57	96	4
TAP	57	144	3
TAP	57	192	2
HLD	57	240	2	144
TAP	57	288	3
TAP	57	336	4
TAP	58	0	5
TAP	58	48	5
TAP	58	96	4
TAP	58	96	5
TAP	58	192	3
HLD	58	192	6	72
TAP	58	264	4
TAP	58	288	5
TAP	58	312	3
TAP	58	336	4
TAP	58	360	2
STR	59	0	3
SI_	59	0	3	96	48	5
XTP	59	96	1
STR	59	192	2
SI_	59	192	2	96	48	4
TAP	59	240	2
XTP	59	288	6
TAP	60	0	5
XTP	60	96	4
XTP	60	96	6
TAP	60	168	5
TAP	60	192	4
TAP	60	240	4
XTP	60	288	3
XTP	60	288	6
STR	61	0	4
SI_	61	0	4	96	48	2
TAP	61	0	5
XTP	61	96	6
STR	61	192	5
SI_	61	192	5	96	48	3
TAP	61	240	5
XTP	61	288	1
TAP	62	0	2
XTP	62	96	1
XTP	62	96	3
STR	62	192	3
SI_	62	192	3	96	48	0
STR	62	192	4
SI_	62	192	4	96	48	7
TAP	63	0	0
TAP	63	0	1
TAP	63	48	2
TAP	63	48	3
TAP	63	96	1
TAP	63	96	4
TAP	63	144	0
TAP	63	144	5
TAP	63	192	6
TAP	63	192	7
TAP	63	240	4
TAP	63	240	5
TAP	63	288	3
TAP	63	288	6
TAP	63	336	2
TAP	63	336	7
TAP	64	0	0
TAP	64	0	1
TAP	64	48	2
TAP	64	96	3
TAP	64	96	4
TAP	64	144	5
TAP	64	192	4
TAP	64	192	6
TAP	64	240	5
TAP	64	288	3
TAP	64	288	4
TAP	64	336	2
TAP	65	0	1
TAP	65	0	3
XTP	65	48	0
TAP	65	96	4
XTP	65	96	6
XTP	65	144	7
XTP	65	192	2
TAP	65	192	3
XTP	65	240	0
TAP	65	288	4
XTP	65	288	5
XTP	65	336	7
XTP	66	0	0
TAP	66	0	1
XTP	66	48	2
TAP	66	48	3
TAP	66	96	6
XTP	66	96	7
TAP	66	144	4
XTP	66	144	5
BRK	66	192	0
BRK	66	192	7
BRK	66	240	1
XHO	66	240	6	144
TTP	67	0	0	C	1	M1
TAP	67	288	3
TAP	67	312	4
TAP	67	336	2
TAP	67	360	3
STR	68	0	1
SI_	68	0	1	96	48	4
BRK	68	96	0
TAP	68	192	6
TAP	68	216	4
TAP	68	264	4
TAP	68	288	5
TAP	68	336	2
TAP	68	336	4
STR	69	0	1
SI_	69	0	1	96	48	4
STR	69	0	5
SI_	69	0	5	96	48	0
XTP	69	96	1
XTP	69	96	5
TAP	69	192	2
TAP	69	216	3
TAP	69	240	2
TAP	69	264	3
XTP	69	288	2
TAP	69	336	1
TAP	69	336	4
TAP	70	0	5
TAP	70	24	4
TAP	70	48	5
TAP	70	72	4
XTP	70	96	5
TAP	70	144	3
TAP	70	144	6
TAP	70	192	1
TAP	70	216	0
STR	70	264	6
SCR	70	264	6	96	120	5
TAP	70	288	7
TTP	70	336	0	C	1	M1
STR	71	144	1
SI_	71	144	1	96	48	4
TAP	71	240	0
TAP	71	288	7
STR	71	336	6
SI_	71	336	6	96	48	1
TAP	72	48	2
STR	72	96	2
SCR	72	96	2	96	48	5
TAP	72	144	2
STR	72	192	6
SCR	72	192	6	96	48	1
TAP	72	240	6
STR	72	288	3
SI_	72	288	3	96	48	0
TAP	72	336	3
XTP	73	0	4
TAP	73	96	6
TAP	73	96	7
XTP	73	144	0
XTP	73	144	5
TAP	73	240	0
TAP	73	240	1
TAP	73	288	2
TAP	73	288	7
TAP	73	336	3
TAP	73	336	6
HLD	74	0	3	72
HLD	74	72	1	72
TAP	74	144	0
XTP	74	192	2
XTP	74	192	7
STR	74	288	6
SCR	74	288	6	96	72	2
TAP	74	312	7
TAP	74	336	6
TAP	74	360	7
BRK	75	0	6
XTP	75	96	3
TAP	75	192	5
TAP	75	216	4
TAP	75	240	6
TAP	75	264	4
TAP	75	288	5
TAP	75	336	0
TAP	75	336	6
TAP	76	0	1
TAP	76	24	0
TAP	76	48	2
TAP	76	72	0
TAP	76	96	1
TAP	76	144	0
TAP	76	144	6
STR	76	192	5
SCR	76	192	5	96	96	1
TAP	76	240	5
STR	76	288	1
SCL	76	288	1	96	96	5
TAP	76	336	2
STR	77	0	3
SI_	77	0	3	96	48	0
XTP	77	96	3
TAP	77	192	6
TAP	77	216	7
TAP	77	240	5
TAP	77	264	7
TAP	77	288	6
TAP	77	336	1
TAP	77	336	7
STR	78	0	2
SI_	78	0	2	96	48	7
STR	78	48	2
SCR	78	48	2	96	48	5
TAP	78	240	0
STR	78	288	0
SXL	78	288	0	96	192	3
TAP	78	336	7
BRK	79	0	6
TAP	79	240	4
STR	79	288	4
SXL	79	288	4	96	192	7
TAP	79	336	3
BRK	80	0	2
TAP	80	240	0
STR	80	288	1
SXR	80	288	1	96	288	6
STR	80	288	5
SXR	80	288	5	96	288	2
TAP	80	336	1
TAP	80	336	5
BRK	81	0	1
TAP	81	0	5
TAP	82	0	0
TAP	82	0	6
TAP	82	48	5
TAP	82	72	4
TAP	82	120	2
TAP	82	144	3
BST	82	192	1
SV_	82	192	1	96	72	4
STR	82	192	7
SV_	82	192	7	96	72	4

T_REC_TAP	379
T_REC_BRK	14
T_REC_XTP	59
T_REC_HLD	24
T_REC_XHO	1
T_REC_STR	70
T_REC_BST	1
T_REC_XST	0
T_REC_TTP	22
T_REC_THO	0
T_REC_SLD	73
T_REC_ALL	643
T_NUM_TAP	530
T_NUM_BRK	15
T_NUM_HLD	25
T_NUM_SLD	73
T_NUM_ALL	643
T_JUDGE_TAP	545
T_JUDGE_HLD	53
T_JUDGE_SLD	73
T_JUDGE_ALL	671
TTM_EACHPAIRS	102
TTM_SCR_TAP	265000
TTM_SCR_BRK	39000
TTM_SCR_HLD	25000
TTM_SCR_SLD	109500
TTM_SCR_ALL	438500
TTM_SCR_S	423900
TTM_SCR_SS	437000
TTM_RAT_ACV	10034

