VERSION	0.00.00	1.03.00
FES_MODE	0
BPM_DEF	137.000	137.000	137.000	137.000
MET_DEF	4	4
RESOLUTION	384
CLK_DEF	384
COMPATIBLE_CODE	MA2

BPM	0	0	137.000
MET	0	0	4	4

TTP	3	0	0	C	0	M1
TTP	3	0	1	E	0	M1
TTP	4	0	0	C	0	M1
TTP	4	0	2	E	0	M1
TTP	5	0	0	C	0	M1
TTP	5	0	3	E	0	M1
TTP	6	0	0	C	0	M1
TTP	6	0	4	E	0	M1
TTP	7	0	0	C	0	M1
TTP	7	0	5	E	0	M1
TTP	8	0	0	C	0	M1
TTP	8	0	6	E	0	M1
TTP	9	0	0	C	0	M1
TTP	9	0	7	E	0	M1
TTP	10	0	0	C	0	M1
TTP	10	0	0	E	0	M1
TAP	11	0	5
TAP	11	96	5
TAP	11	192	4
TAP	11	192	5
TAP	11	288	4
TAP	11	288	5
TAP	12	0	3
TAP	12	96	3
TAP	12	192	3
TAP	12	192	4
TAP	12	288	3
TAP	12	288	4
TAP	13	0	2
TAP	13	96	2
TAP	13	192	2
TAP	13	192	3
TAP	13	288	2
TAP	13	288	3
TAP	14	0	4
TAP	14	96	4
TAP	14	192	3
TAP	14	192	4
TAP	14	288	2
TAP	14	288	5
TAP	15	0	5
TAP	15	96	5
TAP	15	192	4
TAP	15	192	5
TAP	15	288	4
TAP	15	288	5
TAP	16	0	3
TAP	16	96	3
TAP	16	192	3
TAP	16	192	4
TAP	16	288	3
TAP	16	288	4
STR	17	0	2
SUR	17	0	2	96	288	5
XTP	18	288	3
XTP	18	288	4
TAP	19	0	5
TAP	19	96	4
TAP	19	96	6
TAP	19	192	3
TAP	19	288	2
TAP	19	288	4
TAP	20	0	5
TAP	20	96	3
TAP	20	96	5
TAP	20	192	4
TAP	20	240	3
TAP	20	288	2
TAP	21	0	2
TAP	21	96	1
TAP	21	96	3
TAP	21	192	4
TAP	21	288	3
TAP	21	288	5
TAP	22	0	2
TAP	22	96	2
TAP	22	96	4
TAP	22	192	3
TAP	22	240	4
TAP	22	288	5
TAP	23	0	5
TAP	23	96	3
TAP	23	96	6
TAP	23	192	2
TAP	23	288	1
TAP	23	288	3
TAP	24	0	0
TAP	24	96	0
TAP	24	192	1
TAP	24	192	7
TAP	24	288	1
TAP	24	288	7
TAP	25	0	2
TAP	25	96	1
TAP	25	96	4
TAP	25	192	5
TAP	25	288	3
STR	25	288	6
SI_	25	288	6	96	96	2
HLD	26	288	1	96
STR	26	288	3
SCR	26	288	3	96	192	7
STR	27	288	4
SCL	27	288	4	96	192	0
HLD	27	288	6	96
HLD	28	288	1	96
STR	28	288	3
SCR	28	288	3	96	192	7
STR	29	288	4
SCL	29	288	4	96	192	0
HLD	29	288	6	96
TAP	30	288	1
TAP	30	288	3
TAP	31	0	2
HLD	31	0	5	96
TAP	31	96	4
TAP	31	144	4
TAP	31	192	6
TAP	31	288	3
TAP	31	288	7
HLD	32	0	2	96
TAP	32	0	5
TAP	32	96	3
TAP	32	144	3
TAP	32	192	1
TAP	32	288	0
TAP	32	288	4
TAP	33	0	2
TAP	33	0	5
TAP	33	96	2
TAP	33	96	5
TAP	33	192	3
TAP	33	192	4
STR	33	288	3
SI_	33	288	3	96	144	0
STR	33	288	4
SI_	33	288	4	96	144	7
BRK	35	0	1
BRK	35	0	6
TAP	35	192	5
TAP	35	240	5
TAP	35	288	4
TAP	36	0	6
TAP	36	0	7
TAP	36	96	0
TAP	36	96	1
TAP	36	192	2
TAP	36	192	3
TAP	36	288	4
STR	36	288	5
SI_	36	288	5	96	96	0
TAP	37	192	2
TAP	37	240	2
TAP	37	288	3
TAP	38	0	0
TAP	38	0	1
TAP	38	96	6
TAP	38	96	7
TAP	38	192	4
TAP	38	192	5
TAP	38	288	2
STR	38	288	3
SI_	38	288	3	96	96	7
XHO	39	144	1	96
TAP	39	240	7
TAP	39	288	7
TAP	39	336	0
TAP	40	48	3
TAP	40	48	4
TAP	40	96	3
TAP	40	96	4
TAP	40	192	0
TAP	40	192	7
TAP	40	288	2
TAP	40	288	5
HLD	41	0	4	96
HLD	41	0	6	96
HLD	41	144	1	96
HLD	41	144	3	96
STR	41	288	2
SCR	41	288	2	96	192	7
STR	41	288	5
SCL	41	288	5	96	192	0
XTP	43	0	0
XTP	43	0	7
TAP	43	192	2
TAP	43	240	2
TAP	43	288	3
TAP	44	0	0
TAP	44	0	1
TAP	44	96	6
TAP	44	96	7
TAP	44	192	4
TAP	44	192	5
STR	44	288	2
SI_	44	288	2	96	96	7
TAP	44	288	3
TAP	45	192	5
TAP	45	240	5
TAP	45	288	4
TAP	46	0	6
TAP	46	0	7
TAP	46	96	2
TAP	46	96	3
TAP	46	192	0
TAP	46	192	1
STR	46	288	4
SI_	46	288	4	96	96	7
HLD	46	288	5	96
TAP	47	192	4
TAP	47	192	5
HLD	47	288	2	96
STR	47	288	3
SI_	47	288	3	96	96	0
TAP	48	192	2
TAP	48	192	3
STR	48	288	4
SI_	48	288	4	96	96	7
HLD	48	288	5	96
TAP	49	192	6
TAP	49	192	7
TAP	49	288	0
TAP	49	288	1
TAP	50	0	2
TAP	50	0	3
STR	50	96	4
SI_	50	96	4	96	96	1
STR	50	96	5
SI_	50	96	5	96	96	0
TAP	51	0	7
TAP	51	96	7
HLD	51	192	7	192
TAP	51	288	2
TAP	52	0	1
TAP	52	96	1
HLD	52	192	1	192
TAP	52	288	4
TAP	53	0	5
TAP	53	96	5
HLD	53	192	5	192
TAP	53	288	4
TAP	54	0	3
TAP	54	96	3
HLD	54	192	3	192
TAP	54	288	4
TTP	55	0	4	E	0	M1
TTP	55	96	5	E	0	M1
TTP	55	192	6	E	0	M1
TTP	55	288	7	E	0	M1
TTP	56	0	0	C	0	M1
TTP	56	0	4	E	0	M1
TTP	56	96	3	E	0	M1
TTP	56	192	2	E	0	M1
TTP	56	288	1	E	0	M1
TTP	57	0	0	C	0	M1
TTP	57	0	4	E	0	M1
TTP	57	96	5	E	0	M1
TTP	57	192	6	E	0	M1
TTP	57	288	7	E	0	M1
TTP	58	0	0	C	0	M1
TTP	58	0	4	E	0	M1
TTP	58	96	3	E	0	M1
TTP	58	192	2	E	0	M1
HLD	59	0	5	96
TAP	59	96	4
TAP	59	144	4
HLD	59	192	6	192
TAP	59	288	5
TAP	60	0	4
TAP	60	96	3
TAP	60	96	5
TAP	60	192	2
TAP	60	288	1
TAP	60	288	3
HLD	61	0	2	96
TAP	61	96	3
TAP	61	144	3
HLD	61	192	1	192
TAP	61	288	2
TAP	62	0	3
TAP	62	96	2
HLD	62	96	4	96
TAP	62	192	3
TAP	62	288	1
TAP	62	288	6
XTP	63	0	7
XTP	63	48	7
TAP	63	96	7
TAP	63	144	7
TAP	63	192	6
TAP	63	240	6
TAP	63	288	6
TAP	63	336	6
XTP	64	0	0
XTP	64	48	0
TAP	64	96	0
TAP	64	144	0
TAP	64	192	1
TAP	64	240	1
TAP	64	288	1
TAP	64	336	1
XTP	65	0	2
XTP	65	0	5
XTP	65	48	2
XTP	65	48	5
TAP	65	96	2
TAP	65	96	5
TAP	65	144	2
TAP	65	144	5
TAP	65	192	3
TAP	65	192	4
TAP	65	240	3
TAP	65	240	4
TAP	65	288	3
TAP	65	288	4
TAP	65	336	3
TAP	65	336	4
XTP	66	0	2
XTP	66	0	5
XTP	66	48	2
XTP	66	48	5
TAP	66	96	2
TAP	66	96	5
TAP	66	144	2
TAP	66	144	5
TAP	66	192	1
TAP	66	192	6
TAP	66	240	1
TAP	66	240	6
TAP	66	288	1
TAP	66	288	6
TTP	67	0	0	C	0	M1
TTP	67	0	2	B	0	M1
TTP	67	0	5	B	0	M1
TAP	67	288	0
TAP	68	0	2
TAP	68	0	3
TAP	68	96	4
TAP	68	96	5
TAP	68	192	6
TAP	68	192	7
TAP	68	288	0
STR	68	288	1
SI_	68	288	1	96	96	5
TAP	69	192	6
TAP	69	240	6
TAP	69	288	7
TAP	70	0	4
TAP	70	0	5
TAP	70	96	2
TAP	70	96	3
TAP	70	192	0
TAP	70	192	1
STR	70	288	6
SI_	70	288	6	96	96	2
TAP	70	288	7
XHO	71	144	1	96
TAP	71	240	7
TAP	71	288	7
TAP	71	336	0
TAP	72	48	3
TAP	72	48	4
TAP	72	96	3
TAP	72	96	4
TAP	72	192	0
TAP	72	192	7
TAP	72	288	1
TAP	72	288	6
HLD	73	0	2	96
HLD	73	0	4	96
HLD	73	144	3	96
HLD	73	144	5	96
STR	73	288	1
SCL	73	288	1	96	192	4
STR	73	288	6
SCR	73	288	6	96	192	3
BRK	75	0	0
BRK	75	0	7
TAP	75	192	6
TAP	75	240	6
TAP	75	288	7
TAP	76	0	4
TAP	76	0	5
TAP	76	96	2
TAP	76	96	3
TAP	76	192	0
TAP	76	192	1
STR	76	288	6
SI_	76	288	6	96	96	2
TAP	76	288	7
TAP	77	192	1
TAP	77	240	1
TAP	77	288	0
TAP	78	0	2
TAP	78	0	3
TAP	78	96	6
TAP	78	96	7
TAP	78	192	4
TAP	78	192	5
HLD	78	288	0	96
STR	78	288	1
SCR	78	288	1	96	96	4
TAP	79	192	4
TAP	79	192	5
STR	79	288	6
SCL	79	288	6	96	96	3
HLD	79	288	7	96
TAP	80	192	2
TAP	80	192	3
STR	80	288	1
SI_	80	288	1	96	288	6
STR	80	288	5
SI_	80	288	5	96	288	2
TTP	82	192	0	C	1	M1
TTP	82	192	1	B	0	M1
TTP	82	192	2	B	0	M1
TTP	82	192	5	B	0	M1
TTP	82	192	6	B	0	M1

T_REC_TAP	272
T_REC_BRK	4
T_REC_XTP	16
T_REC_HLD	28
T_REC_XHO	2
T_REC_STR	27
T_REC_BST	0
T_REC_XST	0
T_REC_TTP	42
T_REC_THO	0
T_REC_SLD	27
T_REC_ALL	418
T_NUM_TAP	357
T_NUM_BRK	4
T_NUM_HLD	30
T_NUM_SLD	27
T_NUM_ALL	418
T_JUDGE_TAP	361
T_JUDGE_HLD	72
T_JUDGE_SLD	27
T_JUDGE_ALL	460
TTM_EACHPAIRS	118
TTM_SCR_TAP	178500
TTM_SCR_BRK	10400
TTM_SCR_HLD	30000
TTM_SCR_SLD	40500
TTM_SCR_ALL	259400
TTM_SCR_S	251250
TTM_SCR_SS	259000
TTM_RAT_ACV	10015

