VERSION	0.00.00	1.03.00
FES_MODE	0
BPM_DEF	137.000	137.000	137.000	137.000
MET_DEF	4	4
RESOLUTION	384
CLK_DEF	384
COMPATIBLE_CODE	MA2

BPM	0	0	137.000
MET	0	0	4	4

XHO	2	0	5	384
HLD	3	0	4	384
HLD	4	0	3	384
TAP	5	0	2
HLD	6	0	1	384
HLD	7	0	0	384
HLD	8	0	7	384
TAP	9	0	6
TAP	10	0	4
TAP	10	0	5
HLD	11	0	2	192
TAP	11	192	3
TAP	11	288	3
TAP	12	0	4
TAP	12	96	4
TAP	12	192	3
TAP	12	192	5
HLD	13	0	6	192
TAP	13	192	7
TAP	13	288	7
TAP	14	0	0
TAP	14	96	0
TAP	14	192	1
TAP	14	192	7
HLD	15	0	2	192
TAP	15	192	3
TAP	15	288	3
TAP	16	0	4
TAP	16	96	4
TAP	16	192	3
TAP	16	192	5
HLD	17	0	6	96
HLD	17	0	7	96
TAP	17	192	6
TAP	17	192	7
TAP	18	0	0
TAP	18	96	0
XTP	18	192	1
XTP	18	192	7
TAP	19	0	2
TAP	19	96	2
TAP	19	192	2
TAP	19	192	3
TAP	20	0	5
TAP	20	96	5
TAP	20	192	4
TAP	20	192	5
TAP	21	0	2
TAP	21	96	2
TAP	21	192	2
TAP	21	192	3
TAP	22	0	4
TAP	22	96	4
TAP	22	192	3
TAP	22	192	5
TAP	23	0	6
TAP	23	96	6
TAP	23	192	6
TAP	23	192	7
TAP	24	0	1
TAP	24	96	1
TAP	24	192	0
TAP	24	192	1
TAP	25	0	7
TAP	25	96	7
TAP	25	192	0
TAP	25	288	0
TAP	26	0	0
TAP	26	0	7
TAP	26	96	0
TAP	26	96	7
XTP	26	192	1
XTP	26	192	6
STR	27	0	5
SCR	27	0	5	96	144	0
STR	28	0	1
SUR	28	0	1	96	144	5
STR	29	0	6
SUL	29	0	6	96	144	2
STR	30	0	1
SCR	30	0	1	96	144	4
TAP	31	0	5
TAP	31	96	5
TAP	31	192	4
TAP	31	192	5
TAP	32	0	2
TAP	32	96	2
TAP	32	192	2
TAP	32	192	3
TAP	33	0	4
TAP	33	96	4
TAP	33	192	3
TAP	33	192	4
STR	33	288	3
SI_	33	288	3	96	144	0
STR	33	288	4
SI_	33	288	4	96	144	7
BRK	35	0	6
TAP	35	96	6
TAP	35	192	6
TAP	35	192	7
TAP	35	288	6
TAP	35	288	7
TAP	36	0	5
TAP	36	96	5
TAP	36	192	4
TAP	36	192	6
TAP	37	0	2
TAP	37	96	2
TAP	37	192	2
TAP	37	192	3
TAP	37	288	2
TAP	37	288	3
TAP	38	0	1
TAP	38	96	0
TAP	38	192	1
TAP	38	192	7
HLD	39	0	6	192
TAP	39	192	7
TAP	39	288	0
HLD	40	0	1	192
TAP	40	192	0
TAP	40	288	7
TAP	41	0	6
TAP	41	96	6
TAP	41	96	7
TAP	41	192	1
TAP	41	288	0
TAP	41	288	1
TAP	42	0	7
TAP	42	96	0
TAP	42	96	7
TAP	42	192	1
TAP	42	192	6
BRK	43	0	2
TAP	43	96	2
TAP	43	192	2
TAP	43	192	3
TAP	43	288	2
TAP	43	288	3
TAP	44	0	1
TAP	44	96	1
TAP	44	192	0
TAP	44	192	7
TAP	45	0	6
TAP	45	96	6
TAP	45	192	6
TAP	45	192	7
TAP	45	288	6
TAP	45	288	7
TAP	46	0	5
TAP	46	96	4
TAP	46	192	3
TAP	46	288	2
STR	47	0	1
SI_	47	0	1	96	144	4
STR	48	0	5
SI_	48	0	5	96	144	0
STR	49	0	1
SCL	49	0	1	96	480	3
TTP	51	0	2	B	0	L1
TTP	51	0	3	B	0	L1
TTP	52	0	4	B	0	L1
TTP	52	0	5	B	0	L1
TTP	53	0	6	B	0	L1
TTP	53	0	7	B	0	L1
TTP	54	0	0	B	0	L1
TTP	54	0	1	B	0	L1
STR	55	0	0
SI_	55	0	0	96	144	3
STR	56	0	4
SI_	56	0	4	96	144	7
STR	57	0	0
SI_	57	0	0	96	144	4
TAP	58	0	5
TAP	58	96	5
TAP	58	192	4
TAP	58	192	6
TTP	59	0	7	E	0	L1
TTP	59	96	6	B	0	L1
TTP	59	192	5	B	0	L1
TTP	60	0	1	E	0	L1
TTP	60	96	1	B	0	L1
TTP	60	192	2	B	0	L1
TTP	61	0	6	E	0	L1
TTP	61	96	5	B	0	L1
TTP	61	192	4	B	0	L1
TTP	62	0	2	E	0	L1
TTP	62	96	2	B	0	L1
TTP	62	192	3	B	0	L1
XTP	63	0	5
XTP	63	96	5
TAP	63	192	4
TAP	63	288	4
TAP	64	0	3
TAP	64	96	3
TAP	64	192	2
TAP	64	288	2
TAP	65	0	1
TAP	65	96	1
TAP	65	192	0
TAP	65	288	0
TAP	66	0	7
TAP	66	96	7
STR	66	192	0
SCR	66	192	0	96	144	3
STR	66	192	7
SCL	66	192	7	96	144	4
XTP	67	288	3
XTP	67	288	4
BRK	68	0	2
TAP	68	96	2
TAP	68	192	1
TAP	68	192	3
TAP	69	0	5
TAP	69	96	4
TAP	69	96	5
TAP	69	192	5
TAP	69	288	4
TAP	69	288	5
TAP	70	0	6
TAP	70	96	7
TAP	70	192	0
TAP	70	192	6
HLD	71	0	1	192
TAP	71	192	0
TAP	71	288	7
HLD	72	0	6	192
TAP	72	192	7
TAP	72	288	0
TAP	73	0	1
TAP	73	96	0
TAP	73	96	1
TAP	73	192	6
TAP	73	288	6
TAP	73	288	7
TAP	74	0	0
TAP	74	96	0
TAP	74	96	7
TAP	74	192	1
TAP	74	192	6
BRK	75	0	5
TAP	75	96	4
TAP	75	96	5
TAP	75	192	5
TAP	75	288	4
TAP	75	288	5
TAP	76	0	6
TAP	76	96	6
TAP	76	192	0
TAP	76	192	7
TAP	77	0	1
TAP	77	96	0
TAP	77	96	1
TAP	77	192	1
TAP	77	288	0
TAP	77	288	1
TAP	78	0	2
TAP	78	96	3
TAP	78	192	4
TAP	78	288	5
STR	79	0	6
SI_	79	0	6	96	144	3
STR	80	0	2
SI_	80	0	2	96	144	7
STR	81	0	6
SCR	81	0	6	96	480	4

T_REC_TAP	186
T_REC_BRK	4
T_REC_XTP	8
T_REC_HLD	14
T_REC_XHO	1
T_REC_STR	17
T_REC_BST	0
T_REC_XST	0
T_REC_TTP	20
T_REC_THO	0
T_REC_SLD	17
T_REC_ALL	267
T_NUM_TAP	231
T_NUM_BRK	4
T_NUM_HLD	15
T_NUM_SLD	17
T_NUM_ALL	267
T_JUDGE_TAP	235
T_JUDGE_HLD	80
T_JUDGE_SLD	17
T_JUDGE_ALL	332
TTM_EACHPAIRS	51
TTM_SCR_TAP	115500
TTM_SCR_BRK	10400
TTM_SCR_HLD	15000
TTM_SCR_SLD	25500
TTM_SCR_ALL	166400
TTM_SCR_S	161050
TTM_SCR_SS	166000
TTM_RAT_ACV	10024

