VERSION	0.00.00	1.03.00
FES_MODE	0
BPM_DEF	103.000	103.000	103.000	103.000
MET_DEF	4	4
RESOLUTION	384
CLK_DEF	384
COMPATIBLE_CODE	MA2

BPM	0	0	103.000
MET	0	0	4	4

STR	1	0	2
SCR	1	0	2	96	96	5
TAP	1	48	2
TTP	1	192	3	E	0	M1
TTP	1	288	4	E	0	M1
STR	2	0	5
SCL	2	0	5	96	96	2
TAP	2	48	5
TTP	2	192	5	E	0	M1
TTP	2	288	4	E	0	M1
STR	3	0	2
SCR	3	0	2	96	96	5
TAP	3	48	2
TTP	3	192	3	E	0	M1
TTP	3	288	4	E	0	M1
TAP	4	0	5
TAP	4	32	4
TAP	4	64	6
TAP	4	96	2
TAP	4	128	3
TAP	4	160	1
TAP	4	192	5
TAP	4	224	4
TAP	4	256	6
TAP	4	288	2
TAP	4	288	5
TAP	4	368	7
TAP	5	0	0
TAP	5	48	0
TAP	5	96	1
TAP	5	96	3
TAP	5	144	4
TAP	5	176	4
TAP	5	192	3
TAP	5	224	5
TAP	5	240	4
TAP	5	288	4
TAP	5	288	6
TAP	5	368	0
TAP	6	0	7
TAP	6	48	7
TAP	6	96	4
TAP	6	96	6
TAP	6	144	3
TAP	6	176	3
TAP	6	192	4
TAP	6	224	2
TAP	6	240	3
TAP	6	288	1
TAP	6	288	3
TAP	6	368	7
TAP	7	0	0
TAP	7	48	0
TAP	7	96	1
TAP	7	96	3
TAP	7	144	4
TAP	7	176	4
TAP	7	192	3
TAP	7	224	5
TAP	7	240	4
TAP	7	288	4
TAP	7	288	6
TAP	7	368	0
TAP	8	0	7
TAP	8	32	4
TAP	8	32	6
TAP	8	64	3
TAP	8	96	2
TAP	8	96	4
TAP	8	128	1
TAP	8	160	0
TAP	8	192	1
TAP	8	192	7
TAP	8	224	6
TAP	8	256	5
TAP	8	288	2
TAP	8	288	4
TAP	8	320	1
TAP	8	352	0
BRK	9	0	7
TAP	9	96	3
HLD	9	96	5	48
TAP	9	144	4
TAP	9	176	4
TAP	9	192	5
TAP	9	224	5
TAP	9	240	3
TAP	9	288	2
STR	9	288	4
SXL	9	288	4	96	96	4
TAP	10	0	0
TAP	10	48	1
HLD	10	96	2	48
TAP	10	144	3
TAP	10	176	3
TAP	10	192	2
TAP	10	224	2
TAP	10	240	4
TAP	10	288	3
STR	10	288	5
SI_	10	288	5	96	48	2
STR	11	0	1
SI_	11	0	1	96	48	6
HLD	11	96	5	80
TAP	11	176	4
TAP	11	192	5
TAP	11	224	5
TAP	11	240	3
STR	11	288	2
SI_	11	288	2	96	48	6
STR	11	288	4
SI_	11	288	4	96	48	0
HLD	12	96	2	48
TAP	12	96	4
TAP	12	144	3
TAP	12	176	3
TAP	12	192	2
TAP	12	224	2
TAP	12	240	4
TAP	12	288	3
TAP	12	288	5
TTP	12	336	5	E	0	M1
TAP	13	0	2
TAP	13	32	2
TAP	13	48	0
TAP	13	80	0
STR	13	96	7
SUR	13	96	7	96	96	0
TAP	13	128	7
TAP	13	144	5
TAP	14	0	6
TAP	14	32	6
TAP	14	48	4
TAP	14	80	4
STR	14	96	3
SXL	14	96	3	96	96	3
SXR	14	96	3	96	96	3
TAP	14	128	3
TAP	14	144	1
TAP	14	368	5
TAP	15	0	4
TAP	15	32	4
TAP	15	48	6
TAP	15	96	3
TAP	15	96	7
TAP	15	144	2
TAP	15	176	2
TAP	15	192	3
TAP	15	224	3
TAP	15	240	1
TAP	15	288	0
STR	15	288	4
SCL	15	288	4	96	144	5
TAP	15	336	2
TAP	15	336	6
TTP	16	192	4	E	0	M1
TTP	16	240	2	E	0	M1
TTP	16	240	6	E	0	M1
TTP	16	288	3	E	0	M1
TTP	16	288	5	E	0	M1
STR	17	0	2
SI_	17	0	2	96	48	7
TAP	17	48	3
STR	17	96	4
SI_	17	96	4	96	48	1
TAP	17	144	5
STR	17	192	6
SI_	17	192	6	96	48	3
TAP	17	240	7
STR	17	288	0
SI_	17	288	0	96	48	5
TAP	17	336	1
STR	18	0	2
SI_	18	0	2	96	48	7
TAP	18	48	3
STR	18	96	4
SI_	18	96	4	96	48	1
TAP	18	144	5
TAP	18	192	6
TAP	18	240	7
TAP	18	288	0
TAP	18	336	2
TAP	18	336	5
TAP	19	0	1
TAP	19	0	6
TTP	19	48	3	B	0	M1
TTP	19	48	3	E	0	M1
TTP	19	48	4	B	0	M1
TTP	19	48	5	E	0	M1
TAP	19	96	0
TAP	19	96	7
TTP	19	144	1	B	0	M1
TTP	19	144	1	E	0	M1
TTP	19	144	6	B	0	M1
TTP	19	144	7	E	0	M1
TAP	19	192	0
TAP	19	192	7
TAP	19	240	0
TAP	19	240	7
BRK	19	288	2
BRK	19	288	5
TAP	19	368	3
TAP	20	0	4
TAP	20	32	4
TAP	20	48	3
TAP	20	80	3
STR	20	96	6
SUL	20	96	6	96	48	1
TAP	20	128	6
TAP	20	144	0
TAP	20	176	0
XTP	20	288	0
XTP	20	288	7
TAP	21	0	2
STR	21	0	6
SI_	21	0	6	96	48	2
STR	21	48	2
SI_	21	48	2	96	48	6
TAP	21	48	6
STR	21	192	0
SCR	21	192	0	96	48	3
TAP	21	240	1
TAP	21	240	7
STR	22	0	1
SI_	22	0	1	96	48	5
TAP	22	0	5
TAP	22	48	1
STR	22	48	5
SI_	22	48	5	96	48	1
STR	22	192	7
SCL	22	192	7	96	48	4
SCR	22	192	7	96	48	2
TAP	22	240	1
TAP	22	240	5
HLD	23	0	1	192
HLD	23	0	5	192
TAP	23	288	3
TAP	23	288	4
TAP	23	336	2
TAP	23	336	5
TAP	24	0	0
TAP	24	0	7
TAP	24	32	6
TAP	24	48	4
TAP	24	80	1
TAP	24	96	3
TAP	24	128	5
TAP	24	144	4
TAP	24	176	2
STR	24	192	3
SCL	24	192	3	96	48	0
SCR	24	192	3	96	48	7
TAP	24	240	3
TAP	24	240	4
XTP	25	0	0
XTP	25	0	7
XTP	25	48	0
XTP	25	48	7
TAP	25	96	6
TAP	25	128	6
TAP	25	144	4
TAP	25	176	4
TAP	25	192	3
TAP	25	224	3
TAP	25	240	1
TAP	25	288	0
TAP	25	288	3
TAP	25	336	1
TAP	25	336	4
TAP	26	0	2
TAP	26	0	5
TAP	26	48	3
TAP	26	48	6
TAP	26	96	2
TAP	26	128	2
TAP	26	144	0
TAP	26	176	0
TAP	26	192	7
TAP	26	224	7
TAP	26	240	5
TAP	26	288	4
TAP	26	288	7
TAP	26	336	0
TAP	26	336	5
TAP	27	0	1
TAP	27	0	6
TAP	27	48	2
TAP	27	48	7
TAP	27	96	1
TAP	27	128	1
TAP	27	144	3
TAP	27	176	3
TAP	27	192	4
TAP	27	224	4
TAP	27	240	6
TAP	27	288	4
TAP	27	288	7
TAP	27	336	6
TAP	28	0	4
TAP	28	0	5
TAP	28	32	3
TAP	28	32	4
TAP	28	64	2
TAP	28	64	3
TAP	28	96	2
TAP	28	96	3
TAP	28	128	3
TAP	28	128	4
TAP	28	160	6
TAP	28	176	5
TAP	28	192	4
TAP	28	224	2
TAP	28	240	3
TAP	28	288	2
TAP	28	288	5
TAP	28	336	2
TAP	28	336	5
STR	29	0	1
SI_	29	0	1	96	48	7
TAP	29	0	4
TAP	29	48	0
STR	29	96	5
SI_	29	96	5	96	48	3
TAP	29	144	4
STR	29	192	2
SI_	29	192	2	96	48	0
TAP	29	240	1
STR	29	288	6
SI_	29	288	6	96	48	4
TAP	29	336	5
STR	30	0	3
SI_	30	0	3	96	48	1
TAP	30	48	2
STR	30	96	7
SI_	30	96	7	96	48	5
TAP	30	144	6
TAP	30	192	4
TAP	30	240	2
STR	30	288	1
SI_	30	288	1	96	48	3
TAP	30	288	3
TAP	31	0	1
STR	31	0	5
SI_	31	0	5	96	48	7
STR	31	96	2
SI_	31	96	2	96	48	4
TAP	31	96	5
TAP	31	192	2
STR	31	192	6
SI_	31	192	6	96	48	0
TAP	31	288	3
TAP	31	288	6
TAP	32	0	2
TAP	32	0	4
TAP	32	48	2
TAP	32	64	3
TAP	32	80	2
TAP	32	96	3
TAP	32	144	5
TAP	32	160	4
TAP	32	176	5
STR	32	192	4
SF_	32	192	4	96	48	0
TAP	32	240	2
TAP	32	240	6
XST	33	0	0
SI_	33	0	0	96	480	3
TTP	33	192	6	E	0	M1
TTP	34	0	0	C	0	M1
TTP	34	192	2	E	0	M1
HLD	35	0	7	192
TAP	35	192	4
TAP	35	288	3
TAP	36	0	1
TAP	36	32	2
TAP	36	64	3
TAP	36	96	6
TAP	36	128	5
TAP	36	160	4
TAP	36	192	0
TAP	36	224	2
TAP	36	256	3
TAP	36	288	7
TAP	36	320	5
TAP	36	352	4
HLD	37	0	3	96
STR	37	0	7
SI_	37	0	7	96	48	2
STR	37	96	7
SI_	37	96	7	96	48	4
STR	37	192	3
SI_	37	192	3	96	48	7
TAP	37	192	7
STR	38	0	0
SI_	38	0	0	96	48	5
HLD	38	0	4	96
STR	38	96	0
SI_	38	96	0	96	48	3
TAP	38	192	0
TAP	38	192	4
TAP	38	272	4
STR	38	288	3
SI_	38	288	3	96	48	0
TAP	38	336	2
TAP	38	336	5
STR	39	0	6
SI_	39	0	6	96	48	3
TAP	39	48	6
STR	39	96	1
SI_	39	96	1	96	48	6
TAP	39	144	1
STR	39	192	4
SI_	39	192	4	96	48	1
TAP	39	240	4
TAP	39	288	7
TAP	39	336	7
TAP	40	0	5
TAP	40	16	4
TAP	40	32	5
TAP	40	48	2
TAP	40	64	3
TAP	40	80	2
TAP	40	96	5
TAP	40	112	4
TAP	40	128	6
TAP	40	144	2
TAP	40	160	3
TAP	40	176	1
STR	40	192	5
SCL	40	192	5	96	48	2
STR	41	0	2
SCR	41	0	2	96	48	5
TAP	41	0	5
TAP	41	48	2
TAP	41	48	5
STR	41	192	4
SUR	41	192	4	96	48	0
TAP	41	240	3
STR	41	288	2
SUR	41	288	2	96	48	6
TAP	41	336	1
STR	42	0	0
SUR	42	0	0	96	48	4
TAP	42	48	7
STR	42	96	6
SUR	42	96	6	96	48	2
TAP	42	144	5
STR	42	192	4
SUR	42	192	4	96	48	0
TAP	42	240	3
STR	42	288	2
SUR	42	288	2	96	48	6
TAP	42	336	1
TAP	43	0	0
TAP	43	48	7
TAP	43	96	6
TAP	43	144	3
TAP	43	144	4
TAP	43	192	2
TAP	43	192	5
TTP	43	240	0	B	0	M1
TTP	43	240	1	E	0	M1
TTP	43	240	7	B	0	M1
TTP	43	240	7	E	0	M1
TAP	43	288	3
TAP	43	288	4
TTP	43	336	2	B	0	M1
TTP	43	336	3	E	0	M1
TTP	43	336	5	B	0	M1
TTP	43	336	5	E	0	M1
TAP	44	0	3
TAP	44	0	4
TAP	44	32	3
TAP	44	48	4
TAP	44	96	1
TAP	44	96	6
TAP	44	176	7
TAP	44	192	0
TAP	44	224	0
TAP	44	240	7
TAP	44	272	7
STR	44	288	2
SI_	44	288	2	96	48	5
TAP	44	320	2
TAP	44	336	4
TAP	44	368	4
BRK	45	96	0
BRK	45	96	7
STR	45	192	3
SI_	45	192	3	96	48	0
SI_	45	192	3	96	48	6
STR	45	240	0
SI_	45	240	0	96	48	3
TAP	45	240	6
STR	46	0	4
SI_	46	0	4	96	48	1
SI_	46	0	4	96	48	7
TAP	46	48	1
STR	46	48	7
SI_	46	48	7	96	48	4
STR	46	192	3
SCR	46	192	3	96	48	6
SV_	46	192	3	96	48	0
STR	46	240	0
SCR	46	240	0	96	48	3
TAP	46	240	6
STR	47	0	4
SCL	47	0	4	96	48	1
SV_	47	0	4	96	48	7
TAP	47	48	1
STR	47	48	7
SCL	47	48	7	96	48	4
HLD	47	192	3	144
TAP	47	336	4
TAP	48	0	2
TAP	48	0	5
TAP	48	96	6
TAP	48	128	6
TAP	48	144	4
TAP	48	176	4
TAP	48	192	3
TAP	48	224	3
TAP	48	240	1
TAP	48	272	1
TAP	48	288	7
TAP	48	320	7
TAP	48	336	0
TAP	49	0	2
TAP	49	0	5
TAP	49	48	1
TAP	49	48	6
STR	49	96	4
SCL	49	96	4	96	192	4
SCR	49	96	4	96	192	3
TAP	49	112	3
TAP	49	128	4
TAP	49	144	3
TAP	49	160	4
TAP	49	176	3
BRK	49	192	4
TAP	50	96	3
TAP	50	96	4
TAP	50	144	2
TAP	50	192	1
TAP	50	192	3
TAP	50	240	5
TAP	50	288	3
TAP	50	288	6
TAP	50	336	5
TAP	51	0	2
TAP	51	0	4
TAP	51	48	1
TAP	51	96	0
TAP	51	96	5
TAP	51	192	6
TAP	51	224	6
TAP	51	240	4
TAP	51	272	4
TAP	51	288	3
TAP	51	320	3
TAP	51	336	1
TAP	51	368	1
STR	52	0	6
SCL	52	0	6	96	48	3
TAP	52	32	6
TAP	52	48	4
TAP	52	96	0
TAP	52	192	1
TAP	52	224	1
TAP	52	240	3
TAP	52	272	3
TAP	52	288	4
TAP	52	320	4
TAP	52	336	6
TAP	52	368	6
STR	53	0	1
SCR	53	0	1	96	48	4
TAP	53	32	1
TAP	53	48	3
TAP	53	96	7
TAP	53	192	4
TAP	53	192	6
TAP	53	240	2
TAP	53	288	1
TAP	53	288	4
TAP	53	336	2
TAP	54	0	3
TAP	54	0	5
TAP	54	48	6
TAP	54	96	2
TAP	54	96	7
TAP	54	144	1
TAP	54	192	0
TAP	54	192	5
TAP	54	240	6
TAP	54	288	4
TAP	54	288	7
TAP	54	336	3
TAP	55	0	2
TAP	55	0	6
TAP	55	48	5
STR	55	96	4
SI_	55	96	4	96	96	7
TAP	55	144	3
TAP	55	192	2
STR	55	288	3
SI_	55	288	3	96	96	0
TAP	55	336	4
TAP	56	0	5
TAP	56	96	4
TAP	56	144	4
TAP	56	192	1
TAP	56	208	3
TAP	56	224	2
TAP	56	240	3
TAP	56	288	6
TAP	56	304	4
TAP	56	320	5
TAP	56	336	4
TAP	57	0	3
TAP	57	0	4
TAP	57	48	0
TAP	57	48	7
TAP	57	96	2
TAP	57	112	3
TAP	57	128	1
TAP	57	144	5
TAP	57	160	4
TAP	57	176	6
HLD	57	192	0	672
TAP	59	192	7
TAP	59	240	7
TAP	59	288	4
TAP	59	288	6
TAP	59	336	3
TAP	59	368	3
TAP	60	0	4
TAP	60	32	2
TAP	60	48	3
TAP	60	80	1
TAP	60	96	2
TAP	60	176	7
TAP	60	192	0
TAP	60	240	0
TAP	60	288	1
TAP	60	288	3
TAP	60	336	4
TAP	60	368	4
TAP	61	0	3
TAP	61	32	5
TAP	61	48	4
TAP	61	80	6
TAP	61	96	5
TAP	61	176	0
TAP	61	192	7
TAP	61	240	7
TAP	61	288	4
TAP	61	288	6
TAP	61	336	3
TAP	61	368	3
TAP	62	0	4
TAP	62	32	2
TAP	62	48	3
TAP	62	80	1
TAP	62	96	2
TAP	62	176	7
TAP	62	192	0
TAP	62	224	1
TAP	62	224	3
TAP	62	256	4
TAP	62	288	3
TAP	62	288	5
TAP	62	320	6
TAP	62	352	7
TAP	63	0	0
TAP	63	0	6
TAP	63	32	1
TAP	63	64	2
TAP	63	96	3
TAP	63	96	5
TAP	63	128	6
BRK	63	160	0
BRK	63	160	7

T_REC_TAP	483
T_REC_BRK	8
T_REC_XTP	6
T_REC_HLD	11
T_REC_XHO	0
T_REC_STR	67
T_REC_BST	0
T_REC_XST	1
T_REC_TTP	31
T_REC_THO	0
T_REC_SLD	76
T_REC_ALL	683
T_NUM_TAP	588
T_NUM_BRK	8
T_NUM_HLD	11
T_NUM_SLD	76
T_NUM_ALL	683
T_JUDGE_TAP	596
T_JUDGE_HLD	76
T_JUDGE_SLD	76
T_JUDGE_ALL	748
TTM_EACHPAIRS	106
TTM_SCR_TAP	294000
TTM_SCR_BRK	20800
TTM_SCR_HLD	11000
TTM_SCR_SLD	114000
TTM_SCR_ALL	439800
TTM_SCR_S	425850
TTM_SCR_SS	439000
TTM_RAT_ACV	10018

