VERSION	0.00.00	1.03.00
FES_MODE	0
BPM_DEF	103.000	103.000	103.000	103.000
MET_DEF	4	4
RESOLUTION	384
CLK_DEF	384
COMPATIBLE_CODE	MA2

BPM	0	0	103.000
MET	0	0	4	4
MET	41	0	4	2
MET	41	192	4	4

HLD	1	0	2	192
HLD	1	192	3	192
HLD	2	0	4	192
HLD	2	192	5	192
HLD	3	0	4	192
HLD	3	192	3	192
TTP	4	0	2	E	0	M1
TTP	4	96	4	E	0	M1
TTP	4	192	6	E	0	M1
TTP	4	288	3	B	0	M1
TTP	4	288	4	B	0	M1
TAP	5	0	7
TAP	5	48	6
HLD	5	96	5	96
TAP	5	192	4
TAP	5	240	5
TAP	5	288	3
TAP	5	288	6
TAP	6	0	0
TAP	6	48	1
HLD	6	96	2	96
TAP	6	192	3
TAP	6	240	2
TAP	6	288	1
TAP	6	288	4
TAP	7	0	6
TAP	7	48	7
HLD	7	96	0	96
TAP	7	192	7
TAP	7	240	0
TAP	7	288	1
TAP	7	288	6
TTP	8	0	2	B	0	M1
TTP	8	0	3	E	0	M1
TTP	8	96	4	B	0	M1
TTP	8	96	5	E	0	M1
TTP	8	192	0	B	0	M1
TTP	8	192	1	E	0	M1
TTP	8	288	6	B	0	M1
TTP	8	288	7	E	0	M1
TAP	9	0	2
TAP	9	48	2
TAP	9	96	1
TAP	9	96	3
STR	9	192	0
SI_	9	192	0	96	48	4
TAP	9	240	0
TAP	9	288	7
TAP	10	0	5
TAP	10	48	5
TAP	10	96	4
STR	10	96	6
SCL	10	96	6	96	120	7
TAP	11	0	2
TAP	11	48	3
TAP	11	96	1
TAP	11	96	4
TAP	11	192	5
TAP	11	240	4
TAP	11	288	3
TAP	11	288	6
HLD	12	0	1	72
HLD	12	72	2	72
STR	12	144	3
SI_	12	144	3	96	48	0
TAP	12	240	7
TAP	12	288	7
TAP	13	0	2
TAP	13	48	2
TAP	13	96	5
TAP	13	144	5
STR	13	192	1
SI_	13	192	1	96	48	4
TAP	13	240	1
TAP	14	0	5
TAP	14	48	5
TAP	14	96	2
TAP	14	144	2
STR	14	192	6
SI_	14	192	6	96	48	3
TAP	14	240	6
TAP	15	0	2
TAP	15	48	1
HLD	15	96	0	192
TAP	15	192	5
TAP	15	240	6
HLD	15	288	7	384
TAP	16	0	3
TAP	16	96	3
TAP	16	192	3
TAP	16	240	3
XTP	16	288	3
BRK	17	0	1
BRK	17	0	6
TAP	17	48	2
TAP	17	96	3
TAP	17	96	4
TAP	17	144	5
STR	17	192	6
SCL	17	192	6	96	48	3
TAP	17	240	7
TAP	17	288	0
TAP	18	0	2
TAP	18	0	3
TAP	18	48	1
TAP	18	96	4
TAP	18	96	5
TAP	18	144	6
STR	18	192	7
SCL	18	192	7	96	48	4
TAP	18	240	0
TAP	18	288	1
TAP	19	0	0
TAP	19	0	4
TAP	19	48	0
TAP	19	48	4
TAP	19	96	3
TAP	19	96	7
TAP	19	144	3
TAP	19	144	7
TAP	19	192	0
TAP	19	192	4
TAP	19	240	3
TAP	19	240	7
XHO	19	288	0	96
XTP	19	288	4
TAP	20	0	7
TAP	20	48	2
TAP	20	48	3
TAP	20	96	0
TAP	20	144	4
TAP	20	144	5
XST	20	192	3
SCL	20	192	3	96	48	0
XST	20	192	7
SCL	20	192	7	96	48	4
TAP	21	0	6
TAP	21	0	7
TAP	21	48	5
TAP	21	96	3
TAP	21	96	4
TAP	21	144	2
TAP	21	192	0
TAP	21	192	1
TAP	21	240	2
TAP	21	240	7
TAP	21	288	3
TAP	21	288	6
TAP	22	0	1
TAP	22	0	4
TAP	22	48	2
TAP	22	96	3
TAP	22	96	6
TAP	22	144	5
TAP	22	192	1
STR	22	192	4
SI_	22	192	4	96	48	7
TAP	22	240	2
TAP	22	288	3
TTP	23	0	1	E	0	M1
TTP	23	192	7	E	0	M1
HLD	24	0	0	48
HLD	24	0	1	48
HLD	24	96	6	48
HLD	24	96	7	48
TAP	24	192	3
TAP	24	192	4
TAP	24	240	3
TAP	24	240	4
BRK	24	288	1
BRK	24	288	6
TAP	25	0	2
TAP	25	48	3
HLD	25	96	4	80
HLD	25	96	6	80
TTP	25	240	4	E	0	M1
TTP	25	288	3	E	0	M1
TTP	25	336	2	E	0	M1
TAP	26	0	5
TAP	26	48	4
HLD	26	96	1	80
HLD	26	96	3	80
TTP	26	240	4	E	0	M1
TTP	26	288	5	E	0	M1
TTP	26	336	6	E	0	M1
TAP	27	0	3
TAP	27	48	4
HLD	27	96	2	80
HLD	27	96	5	80
TTP	27	240	4	E	0	M1
TTP	27	288	0	C	0	M1
TTP	27	336	0	E	0	M1
HLD	28	0	1	176
HLD	28	96	6	96
XTP	28	240	0
XTP	28	240	7
XTP	28	288	0
XTP	28	288	7
XTP	28	336	1
XTP	28	336	6
HLD	29	0	2	192
TAP	29	48	3
TAP	29	96	4
TAP	29	144	5
HLD	29	192	5	192
TAP	29	240	4
TAP	29	288	3
TAP	29	336	2
HLD	30	0	1	192
TAP	30	48	3
TAP	30	96	4
TAP	30	144	5
HLD	30	192	6	192
TAP	30	240	4
TAP	30	288	3
TAP	30	336	2
HLD	31	0	0	192
TAP	31	48	3
TAP	31	96	4
TAP	31	144	5
HLD	31	192	7	192
TAP	31	240	4
TAP	31	288	3
TAP	31	336	2
TAP	32	0	0
XHO	32	48	1	48
XHO	32	48	3	48
XHO	32	144	4	48
XHO	32	144	6	48
XTP	32	240	2
XTP	32	240	5
BRK	32	288	0
BRK	32	288	7
TTP	33	0	3	E	0	M1
TTP	33	192	5	E	0	M1
STR	34	0	3
SXL	34	0	3	96	144	3
SXR	34	0	3	96	144	3
TTP	35	0	5	E	0	M1
TTP	35	192	3	E	0	M1
HLD	36	0	5	96
HLD	36	96	4	96
HLD	36	192	3	96
TAP	36	288	2
TAP	37	0	2
TAP	37	0	3
TAP	37	96	2
TAP	37	96	4
TAP	37	192	2
TAP	37	192	5
TAP	37	288	2
TAP	37	288	6
TAP	38	0	4
TAP	38	0	5
TAP	38	96	3
TAP	38	96	5
TAP	38	192	2
TAP	38	192	5
TAP	38	288	1
TAP	38	288	5
TAP	38	336	1
TAP	38	336	5
TAP	39	0	6
TAP	39	48	5
TAP	39	96	4
TAP	39	144	3
TAP	39	192	2
TAP	39	240	1
STR	39	288	0
SCR	39	288	0	96	144	7
TAP	39	336	7
TTP	40	192	0	C	1	M1
TAP	41	0	3
HLD	41	0	4	96
TAP	41	48	3
TAP	41	96	3
XTP	41	128	4
XTP	41	144	3
BRK	41	192	1
BRK	41	192	6
TAP	41	240	5
TAP	41	288	3
TAP	41	288	4
TAP	41	336	2
TAP	42	0	0
STR	42	0	1
SCR	42	0	1	96	48	4
TAP	42	48	7
XTP	42	96	6
TAP	42	192	5
TAP	42	240	4
TAP	42	288	2
TAP	42	288	3
TAP	42	336	1
STR	43	0	0
SCR	43	0	0	96	48	3
TAP	43	0	7
TAP	43	48	6
XTP	43	96	5
TAP	43	192	5
TAP	43	240	4
TAP	43	240	6
TAP	43	288	2
TAP	43	336	1
TAP	43	336	3
STR	44	0	0
SI_	44	0	0	96	48	3
STR	44	0	4
SI_	44	0	4	96	48	7
TAP	44	48	0
TAP	44	48	4
TAP	44	192	1
TAP	44	240	4
TAP	44	240	5
TAP	44	288	6
TAP	44	336	2
TAP	44	336	3
XST	45	0	0
SCR	45	0	0	96	48	3
XST	45	0	4
SCR	45	0	4	96	48	7
TAP	45	192	0
TAP	45	192	1
TAP	45	240	2
TAP	45	288	3
TAP	45	288	4
TAP	45	336	5
TAP	46	0	6
TAP	46	0	7
TAP	46	48	0
TAP	46	48	5
TAP	46	96	1
TAP	46	96	4
TAP	46	192	3
TAP	46	192	6
TAP	46	240	5
TAP	46	288	1
TAP	46	288	4
TAP	46	336	2
STR	47	0	3
SI_	47	0	3	96	48	0
TAP	47	0	6
TAP	47	48	5
TAP	47	96	4
TTP	47	192	7	E	0	M1
TTP	48	0	1	E	0	M1
HLD	48	192	6	48
HLD	48	192	7	48
HLD	48	288	0	48
HLD	48	288	1	48
XTP	49	0	4
XTP	49	0	5
XTP	49	48	3
XTP	49	48	6
XTP	49	96	2
XTP	49	96	7
XTP	49	144	0
XTP	49	144	1
HLD	49	192	2	336
BRK	49	192	7
TAP	49	288	5
TAP	49	336	5
TAP	50	0	6
TAP	50	48	5
TAP	50	96	4
TAP	50	144	3
TAP	50	192	1
HLD	50	192	4	144
TAP	50	240	1
TAP	50	288	3
TAP	50	336	3
TAP	51	0	2
TAP	51	0	5
TAP	51	48	1
TAP	51	48	6
TAP	51	96	0
TAP	51	96	7
TAP	51	192	1
HLD	51	192	3	240
TAP	51	240	1
TAP	51	288	0
TAP	51	336	0
TAP	52	0	2
TAP	52	48	2
XTP	52	96	1
XTP	52	96	4
HLD	52	192	4	240
TAP	52	192	6
TAP	52	240	6
TAP	52	288	7
TAP	52	336	7
TAP	53	0	5
TAP	53	48	5
XTP	53	96	3
XTP	53	96	6
TAP	53	192	1
TAP	53	192	4
TAP	53	240	3
TAP	53	288	1
TAP	53	288	4
HLD	53	336	2	192
TAP	54	0	3
TAP	54	48	4
TAP	54	96	5
TAP	54	144	6
TAP	54	192	3
TAP	54	192	6
TAP	54	240	4
TAP	54	288	3
TAP	54	288	6
HLD	54	336	5	192
TAP	55	0	4
TAP	55	48	3
TAP	55	96	2
TAP	55	144	1
STR	55	192	0
SI_	55	192	0	96	96	3
TAP	55	288	4
STR	56	0	7
SI_	56	0	7	96	96	4
TAP	56	96	3
TAP	56	192	0
TAP	56	240	0
TAP	56	288	0
TAP	56	288	7
TAP	56	336	0
TAP	56	336	7
TAP	57	0	1
TAP	57	0	6
TAP	57	48	2
TAP	57	48	5
BRK	57	96	0
BRK	57	96	7
HLD	57	192	1	288
HLD	58	0	6	96
TTP	58	192	0	E	0	M1
TTP	58	288	0	C	0	M1
TTP	59	0	4	E	0	M1
TAP	59	192	3
TAP	59	192	4
TAP	59	240	2
HLD	59	288	1	96
TAP	60	0	0
TAP	60	48	1
TAP	60	96	2
TAP	60	96	7
TAP	60	192	3
TAP	60	192	4
TAP	60	240	5
HLD	60	288	6	96
TAP	61	0	7
TAP	61	48	6
TAP	61	96	0
TAP	61	96	5
TAP	61	192	1
TAP	61	192	6
TAP	61	240	0
HLD	61	288	7	96
TAP	62	0	0
TAP	62	48	7
TAP	62	96	1
TAP	62	96	6
TAP	62	192	3
TAP	62	224	3
TAP	62	256	3
TAP	62	288	5
TAP	62	320	5
TAP	62	352	5
TAP	63	0	1
TAP	63	32	1
TAP	63	64	1
TAP	63	96	7
TAP	63	128	7
TAP	63	160	7

T_REC_TAP	305
T_REC_BRK	11
T_REC_XTP	26
T_REC_HLD	50
T_REC_XHO	5
T_REC_STR	17
T_REC_BST	0
T_REC_XST	4
T_REC_TTP	34
T_REC_THO	0
T_REC_SLD	22
T_REC_ALL	474
T_NUM_TAP	386
T_NUM_BRK	11
T_NUM_HLD	55
T_NUM_SLD	22
T_NUM_ALL	474
T_JUDGE_TAP	397
T_JUDGE_HLD	302
T_JUDGE_SLD	22
T_JUDGE_ALL	721
TTM_EACHPAIRS	104
TTM_SCR_TAP	193000
TTM_SCR_BRK	28600
TTM_SCR_HLD	55000
TTM_SCR_SLD	33000
TTM_SCR_ALL	309600
TTM_SCR_S	299250
TTM_SCR_SS	308500
TTM_RAT_ACV	10035

