VERSION	0.00.00	1.03.00
FES_MODE	0
BPM_DEF	103.000	103.000	103.000	103.000
MET_DEF	4	4
RESOLUTION	384
CLK_DEF	384
COMPATIBLE_CODE	MA2

BPM	0	0	103.000
MET	0	0	4	4

HLD	1	0	2	192
TAP	1	192	3
HLD	2	0	5	192
TAP	2	192	4
HLD	3	0	2	192
TAP	3	192	3
TAP	4	0	4
STR	4	0	5
SCR	4	0	5	96	144	0
TAP	5	0	1
TAP	5	96	1
TAP	5	192	0
TAP	5	192	1
TAP	6	0	6
TAP	6	96	6
TAP	6	192	6
TAP	6	192	7
TAP	7	0	1
TAP	7	96	1
TAP	7	192	0
TAP	7	192	1
XTP	8	0	0
XTP	8	0	7
XTP	8	96	1
XTP	8	96	6
XTP	8	192	2
XTP	8	192	5
XTP	8	288	3
XTP	8	288	4
TAP	9	0	5
TAP	9	96	5
TAP	9	192	4
TAP	10	0	2
TAP	10	96	2
TAP	10	192	3
TAP	11	0	5
TAP	11	96	5
TAP	11	192	4
TAP	11	288	4
STR	12	0	3
SCL	12	0	3	96	144	0
TAP	13	0	6
TAP	13	96	6
TAP	13	192	7
TAP	14	0	1
TAP	14	96	1
TAP	14	192	0
HLD	15	0	6	96
HLD	15	0	7	96
HLD	15	192	0	96
HLD	15	192	1	96
STR	16	0	0
SCR	16	0	0	96	144	3
STR	16	0	7
SCL	16	0	7	96	144	4
BRK	17	0	5
TAP	17	96	5
TAP	17	192	4
TAP	17	192	5
TAP	17	288	4
TAP	17	288	5
TAP	18	0	2
TAP	18	96	2
TAP	18	192	2
TAP	18	192	3
TAP	18	288	2
TAP	18	288	3
TAP	19	0	1
TAP	19	96	1
TAP	19	192	0
TAP	19	288	0
TAP	20	0	7
TAP	20	96	7
TAP	20	192	0
TAP	20	192	6
TAP	21	0	1
TAP	21	96	1
TAP	21	192	0
TAP	21	192	1
TAP	21	288	0
TAP	21	288	1
TAP	22	0	2
TAP	22	96	3
STR	22	192	3
SI_	22	192	3	96	144	7
STR	22	192	4
SI_	22	192	4	96	144	0
TAP	23	192	0
TAP	23	192	7
TAP	24	0	0
TAP	24	0	7
TAP	24	96	0
TAP	24	96	7
BRK	24	192	1
BRK	24	192	6
TTP	25	0	5	E	0	L1
TTP	25	96	5	B	0	L1
TTP	25	192	6	B	0	L1
TTP	26	0	3	E	0	L1
TTP	26	96	2	B	0	L1
TTP	26	192	1	B	0	L1
TTP	27	0	4	B	0	L1
TTP	27	96	5	B	0	L1
TTP	27	192	6	B	0	L1
TTP	27	288	7	B	0	L1
TTP	28	0	0	B	0	L1
TTP	28	96	1	B	0	L1
TTP	28	192	2	B	0	L1
XHO	29	0	5	192
TAP	29	192	4
TAP	29	288	3
HLD	30	0	2	192
TAP	30	192	3
TAP	30	288	4
XTP	31	0	5
XTP	31	96	6
XTP	31	192	7
XTP	31	288	0
XTP	32	0	0
XTP	32	0	7
XTP	32	96	1
XTP	32	96	6
BRK	32	192	2
BRK	32	192	5
STR	33	0	4
SCR	33	0	4	96	480	3
TAP	35	0	2
TAP	35	192	1
STR	36	0	0
SI_	36	0	0	96	144	3
STR	36	0	7
SI_	36	0	7	96	144	4
HLD	37	0	5	192
HLD	37	192	4	192
HLD	38	0	3	192
TAP	38	192	2
TAP	39	0	1
TAP	39	96	0
TAP	39	192	7
TAP	39	288	6
TAP	40	0	5
TAP	40	96	3
TAP	40	96	4
TAP	40	192	2
TAP	40	192	5
HLD	41	0	0	96
HLD	41	0	7	96
BRK	41	192	6
TAP	41	288	6
TAP	41	288	7
TAP	42	0	6
TAP	42	96	6
TAP	42	96	7
TAP	42	192	1
TAP	42	288	0
TAP	42	288	1
TAP	43	0	1
TAP	43	96	0
TAP	43	96	1
TAP	43	192	2
TAP	43	288	2
TAP	44	0	3
TAP	44	96	3
TAP	44	192	4
TAP	44	288	4
TAP	45	0	3
TAP	45	0	5
TAP	45	192	2
TAP	45	288	2
TAP	45	288	3
TAP	46	0	2
TAP	46	96	2
TAP	46	96	3
TAP	46	192	1
TAP	46	288	0
STR	47	0	0
SCR	47	0	0	96	144	3
STR	47	0	7
SCL	47	0	7	96	144	4
TAP	48	0	3
TAP	48	0	4
TAP	48	192	2
TAP	48	192	5
TAP	48	288	1
TAP	48	288	6
HLD	49	0	0	96
HLD	49	0	7	96
TTP	49	192	0	C	1	L1
TTP	49	192	2	B	0	L1
TTP	49	192	5	B	0	L1
STR	50	192	7
SI_	50	192	7	96	144	3
STR	51	192	2
SCR	51	192	2	96	144	5
TAP	52	192	6
TAP	52	288	6
TAP	53	0	7
TAP	53	96	7
STR	53	192	0
SI_	53	192	0	96	144	4
STR	54	192	5
SCL	54	192	5	96	144	2
HLD	55	192	0	96
HLD	55	192	1	96
HLD	56	0	6	96
HLD	56	0	7	96
TAP	56	192	0
TAP	56	192	7
TAP	56	288	0
TAP	56	288	7
BRK	57	0	1
BRK	57	0	6
TTP	57	192	5	B	0	L1
TTP	58	0	4	B	0	L1
TTP	58	192	3	B	0	L1
TTP	59	0	2	B	0	L1
TAP	59	192	1
TAP	59	288	1
TAP	60	0	0
TAP	60	0	1
TAP	60	192	6
TAP	60	288	6
TAP	61	0	6
TAP	61	0	7
TAP	61	192	1
TAP	61	288	1
TAP	62	0	0
TAP	62	0	1
XTP	62	192	0
XTP	62	192	7
XTP	62	288	1
XTP	62	288	6
XTP	63	0	2
XTP	63	0	5
XTP	63	96	3
XTP	63	96	4

T_REC_TAP	134
T_REC_BRK	8
T_REC_XTP	24
T_REC_HLD	19
T_REC_XHO	1
T_REC_STR	15
T_REC_BST	0
T_REC_XST	0
T_REC_TTP	20
T_REC_THO	0
T_REC_SLD	15
T_REC_ALL	236
T_NUM_TAP	193
T_NUM_BRK	8
T_NUM_HLD	20
T_NUM_SLD	15
T_NUM_ALL	236
T_JUDGE_TAP	201
T_JUDGE_HLD	112
T_JUDGE_SLD	15
T_JUDGE_ALL	328
TTM_EACHPAIRS	54
TTM_SCR_TAP	96500
TTM_SCR_BRK	20800
TTM_SCR_HLD	20000
TTM_SCR_SLD	22500
TTM_SCR_ALL	159800
TTM_SCR_S	154250
TTM_SCR_SS	159000
TTM_RAT_ACV	10050

