VERSION	0.00.00	1.03.00
FES_MODE	0
BPM_DEF	103.000	103.000	103.000	103.000
MET_DEF	4	4
RESOLUTION	384
CLK_DEF	384
COMPATIBLE_CODE	MA2

BPM	0	0	103.000
MET	0	0	4	4

TAP	5	0	7
TAP	6	0	7
TAP	7	0	0
BRK	8	0	0
TAP	9	0	7
TAP	9	192	7
TAP	10	0	6
TAP	11	0	5
TAP	11	192	5
TAP	12	0	4
TAP	13	0	3
TAP	13	192	3
TAP	14	0	2
TAP	15	0	1
TAP	15	192	1
TAP	16	0	0
TAP	16	0	7
TAP	17	0	0
TAP	17	192	0
TAP	18	0	1
TAP	18	192	1
TAP	19	0	2
TAP	19	192	2
TAP	20	0	3
TAP	20	192	3
TAP	20	192	4
TAP	21	0	4
TAP	21	192	4
TAP	22	0	5
TAP	22	192	5
TAP	23	0	6
TAP	23	192	6
TAP	24	0	7
XTP	24	192	0
XTP	24	192	7
STR	25	0	7
SI_	25	0	7	96	288	4
STR	27	0	0
SI_	27	0	0	96	288	3
STR	29	0	7
SI_	29	0	7	96	288	3
STR	31	0	0
SI_	31	0	0	96	288	4
TTP	33	0	7	B	0	L1
TTP	34	0	6	B	0	L1
TTP	35	0	5	B	0	L1
TTP	36	0	4	B	0	L1
TTP	37	0	3	B	0	L1
TTP	38	0	2	B	0	L1
TTP	39	0	1	B	0	L1
THO	40	0	0	192	C	0	L1
BRK	41	192	0
TAP	41	288	0
TAP	42	0	0
TAP	42	192	1
TAP	43	0	1
TAP	43	192	2
TAP	43	288	2
TAP	44	0	2
TAP	44	192	3
TAP	44	192	4
TAP	45	0	3
TAP	45	0	4
TAP	45	192	4
TAP	45	288	4
TAP	46	0	4
TAP	46	192	5
TAP	47	0	5
TAP	47	192	6
TAP	47	288	6
TAP	48	0	6
TAP	48	192	0
TAP	48	192	7
XTP	49	0	0
XTP	49	0	7
HLD	49	192	6	192
HLD	49	192	7	192
HLD	50	192	4	192
HLD	50	192	5	192
HLD	51	192	2	192
HLD	51	192	3	192
HLD	52	192	0	192
HLD	52	192	1	192
TAP	53	192	0
TAP	54	0	1
TAP	54	192	2
TAP	55	0	2
TAP	55	0	3
TAP	55	192	4
TAP	56	0	5
TAP	56	192	6
TAP	57	0	6
TAP	57	0	7
STR	57	192	0
SI_	57	192	0	96	288	3
STR	57	192	7
SI_	57	192	7	96	288	4
TTP	59	192	3	B	0	L1
TTP	59	192	4	B	0	L1
TTP	60	192	2	B	0	L1
TTP	60	192	5	B	0	L1
TTP	61	192	1	B	0	L1
TTP	61	192	6	B	0	L1
THO	62	192	0	360	C	0	L1

T_REC_TAP	63
T_REC_BRK	2
T_REC_XTP	4
T_REC_HLD	8
T_REC_XHO	0
T_REC_STR	6
T_REC_BST	0
T_REC_XST	0
T_REC_TTP	13
T_REC_THO	2
T_REC_SLD	6
T_REC_ALL	104
T_NUM_TAP	86
T_NUM_BRK	2
T_NUM_HLD	10
T_NUM_SLD	6
T_NUM_ALL	104
T_JUDGE_TAP	88
T_JUDGE_HLD	87
T_JUDGE_SLD	6
T_JUDGE_ALL	181
TTM_EACHPAIRS	14
TTM_SCR_TAP	43000
TTM_SCR_BRK	5200
TTM_SCR_HLD	10000
TTM_SCR_SLD	9000
TTM_SCR_ALL	67200
TTM_SCR_S	65000
TTM_SCR_SS	67000
TTM_RAT_ACV	10029

