VERSION	0.00.00	1.03.00
FES_MODE	0
BPM_DEF	146.000	146.000	146.000	146.000
MET_DEF	4	4
RESOLUTION	384
CLK_DEF	384
COMPATIBLE_CODE	MA2

BPM	0	0	146.000
MET	0	0	4	4

HLD	1	0	4	288
STR	1	192	3
SCR	1	192	3	96	48	5
HLD	2	0	4	288
STR	2	192	3
SCR	2	192	3	96	48	5
HLD	3	0	4	288
STR	3	192	3
SCL	3	192	3	96	48	1
HLD	4	0	5	288
STR	4	192	2
SCR	4	192	2	96	48	4
HLD	5	0	3	288
STR	5	192	4
SCL	5	192	4	96	48	2
HLD	6	0	3	288
STR	6	192	4
SCL	6	192	4	96	48	2
HLD	7	0	3	288
STR	7	192	4
SCR	7	192	4	96	48	6
HLD	8	0	2	288
STR	8	192	5
SCL	8	192	5	96	48	3
TAP	9	0	1
TAP	9	48	1
TAP	9	96	5
TAP	9	144	5
STR	9	192	2
SI_	9	192	2	96	48	4
TAP	9	240	4
TAP	9	288	2
TAP	9	288	5
TAP	9	336	5
TAP	10	0	6
TAP	10	48	6
TAP	10	96	2
TAP	10	144	2
STR	10	192	5
SI_	10	192	5	96	48	3
TAP	10	240	3
TAP	10	288	2
TAP	10	288	5
TAP	10	336	2
TAP	11	0	1
TAP	11	48	1
TAP	11	96	5
TAP	11	144	5
STR	11	192	2
SI_	11	192	2	96	48	4
TAP	11	240	4
TAP	11	288	2
TAP	11	288	5
TAP	11	336	5
TAP	12	0	6
TAP	12	48	6
TAP	12	96	2
TAP	12	144	2
TAP	12	192	5
TAP	12	240	5
TAP	12	288	3
TAP	12	336	4
TAP	13	0	6
TAP	13	48	6
TAP	13	96	2
TAP	13	144	2
STR	13	192	5
SI_	13	192	5	96	48	3
TAP	13	240	3
TAP	13	288	2
TAP	13	288	5
TAP	13	336	2
TAP	14	0	1
TAP	14	48	1
TAP	14	96	5
TAP	14	144	5
TAP	14	192	2
TAP	14	240	2
TAP	14	288	4
TAP	14	336	3
TAP	15	0	1
TAP	15	48	1
TAP	15	96	5
TAP	15	144	5
TAP	15	192	2
TAP	15	240	3
TAP	15	288	4
TAP	15	288	6
TAP	15	336	5
TAP	16	0	3
TAP	16	0	4
TAP	16	72	2
TAP	16	72	5
HLD	16	144	2	96
HLD	16	144	5	96
TTP	16	288	3	B	0	M1
TTP	16	288	3	E	0	M1
TTP	16	288	4	B	0	M1
TTP	16	288	5	E	0	M1
TAP	17	0	1
TAP	17	0	7
TAP	17	48	6
TAP	17	96	5
TAP	17	96	7
TAP	17	144	4
TAP	17	192	5
TAP	17	192	7
TAP	17	240	0
STR	17	288	1
SCR	17	288	1	96	48	4
TAP	17	288	7
TAP	17	336	2
STR	18	0	6
SCR	18	0	6	96	48	1
STR	18	96	3
SCR	18	96	3	96	48	6
TAP	18	192	0
TAP	18	288	5
TAP	18	336	5
TAP	19	0	2
TAP	19	0	4
TAP	19	48	1
TAP	19	96	0
TAP	19	96	2
TAP	19	144	3
TAP	19	192	2
TAP	19	192	4
TAP	19	240	5
STR	19	288	4
SCL	19	288	4	96	48	1
TAP	19	288	6
TAP	19	336	3
STR	20	0	7
SCL	20	0	7	96	48	4
STR	20	96	2
SCL	20	96	2	96	48	7
HLD	20	192	5	96
TAP	20	288	4
TAP	21	0	0
TAP	21	0	6
TAP	21	48	1
TAP	21	96	0
TAP	21	96	2
TAP	21	144	3
TAP	21	192	0
TAP	21	192	2
TAP	21	240	7
TAP	21	288	0
STR	21	288	6
SCL	21	288	6	96	48	3
TAP	21	336	5
STR	22	0	1
SCL	22	0	1	96	48	6
STR	22	96	4
SCL	22	96	4	96	48	1
TAP	22	192	7
TAP	22	288	2
TAP	22	336	2
TAP	23	0	3
TAP	23	0	5
TAP	23	48	6
TAP	23	96	5
TAP	23	96	7
TAP	23	144	4
TAP	23	192	3
TAP	23	192	5
TAP	23	240	2
TAP	23	288	1
STR	23	288	3
SCR	23	288	3	96	48	6
TAP	23	336	4
STR	24	0	0
SUL	24	0	0	96	144	6
TAP	24	96	5
TTP	24	192	0	C	0	M1
TAP	25	0	1
TAP	25	0	7
TAP	25	48	6
TAP	25	96	5
TAP	25	96	7
TAP	25	144	4
TAP	25	192	5
TAP	25	192	7
TAP	25	240	0
STR	25	288	1
SCR	25	288	1	96	48	4
TAP	25	288	7
TAP	25	336	2
STR	26	0	6
SCR	26	0	6	96	48	1
STR	26	96	3
SCR	26	96	3	96	48	6
TAP	26	192	0
TAP	26	288	5
TAP	26	336	5
TAP	27	0	2
TAP	27	0	4
TAP	27	48	1
TAP	27	96	0
TAP	27	96	2
TAP	27	144	3
TAP	27	192	2
TAP	27	192	4
TAP	27	240	5
STR	27	288	4
SI_	27	288	4	96	48	1
TAP	27	288	6
TAP	27	336	3
STR	28	0	7
SXR	28	0	7	96	96	7
STR	28	96	0
SXL	28	96	0	96	96	0
TAP	28	288	7
TAP	28	336	7
TAP	29	0	0
TAP	29	0	6
TAP	29	48	1
TAP	29	96	0
TAP	29	96	2
TAP	29	144	3
TAP	29	192	0
TAP	29	192	2
TAP	29	240	7
TAP	29	288	0
STR	29	288	6
SCL	29	288	6	96	48	3
TAP	29	336	5
STR	30	0	1
SCL	30	0	1	96	48	6
STR	30	96	4
SCL	30	96	4	96	48	1
TAP	30	192	7
TAP	30	288	2
TAP	30	336	2
TAP	31	0	3
TAP	31	0	5
TAP	31	48	6
TAP	31	96	5
TAP	31	96	7
TAP	31	144	4
TAP	31	192	3
TAP	31	192	5
TAP	31	240	2
TAP	31	288	1
STR	31	288	3
SI_	31	288	3	96	48	6
TAP	31	336	4
STR	32	0	0
SI_	32	0	0	96	48	3
STR	32	96	7
SI_	32	96	7	96	48	4
HLD	32	192	0	96
TAP	32	288	7
TAP	32	336	7
TAP	33	0	3
TAP	33	0	6
TAP	33	48	2
STR	33	96	1
SI_	33	96	1	96	48	4
STR	33	96	5
SCR	33	96	5	96	48	0
XTP	33	192	1
XTP	33	192	5
TAP	33	288	3
TAP	33	288	7
HLD	33	336	3	96
TAP	33	336	7
TAP	34	48	5
STR	34	96	2
SCL	34	96	2	96	48	7
STR	34	96	6
SI_	34	96	6	96	48	3
XTP	34	192	2
XTP	34	192	6
TAP	34	288	7
TAP	34	336	0
TAP	35	0	1
TAP	35	0	4
TAP	35	48	5
TAP	35	96	3
TAP	35	96	6
TAP	35	144	7
TAP	35	192	0
TAP	35	240	1
TAP	35	288	2
TAP	35	336	3
TAP	35	336	6
TAP	36	0	5
TAP	36	48	1
TAP	36	48	4
STR	36	96	1
SCR	36	96	1	96	48	4
STR	36	96	4
SI_	36	96	4	96	48	7
XTP	36	192	1
XTP	36	192	4
TAP	36	288	3
TAP	36	336	2
TAP	37	0	1
TAP	37	0	4
TAP	37	48	5
STR	37	96	2
SCL	37	96	2	96	48	7
STR	37	96	6
SI_	37	96	6	96	48	3
XTP	37	192	2
XTP	37	192	6
TAP	37	288	0
TAP	37	288	4
TAP	37	336	0
HLD	37	336	4	96
TAP	38	48	2
STR	38	96	1
SI_	38	96	1	96	48	5
STR	38	96	5
SCR	38	96	5	96	48	0
XTP	38	192	1
XTP	38	192	5
TAP	38	288	0
TAP	38	336	7
TAP	39	0	3
TAP	39	0	6
TAP	39	48	2
TAP	39	96	1
TAP	39	96	4
TAP	39	144	0
STR	39	192	7
SCL	39	192	7	96	144	0
TTP	39	288	0	C	1	M1
STR	40	192	3
SI_	40	192	3	96	48	0
STR	40	192	4
SI_	40	192	4	96	48	7
TAP	40	240	2
TAP	40	240	5
BRK	41	0	1
BRK	41	0	6
TAP	41	48	2
TAP	41	72	3
TAP	41	120	1
STR	41	144	0
SI_	41	144	0	96	48	3
SI_	41	144	0	96	48	5
TAP	41	192	2
TAP	41	192	6
TAP	41	336	2
TAP	42	0	1
TAP	42	0	6
TAP	42	48	5
TAP	42	72	4
TAP	42	120	6
STR	42	144	7
SI_	42	144	7	96	48	2
SI_	42	144	7	96	48	4
TAP	42	192	1
TAP	42	192	5
TAP	42	336	5
TAP	43	0	1
TAP	43	0	6
TAP	43	48	2
TAP	43	72	3
TAP	43	120	1
TAP	43	144	0
TAP	43	192	3
TAP	43	192	5
TAP	43	240	6
HLD	43	264	6	48
HLD	43	312	5	48
TAP	43	360	4
TAP	44	0	4
TAP	44	48	1
TAP	44	72	3
TAP	44	96	2
TAP	44	144	6
TAP	44	168	4
TAP	44	192	5
STR	44	240	2
SI_	44	240	2	96	48	6
TAP	44	264	3
TAP	44	288	1
XTP	44	336	7
XTP	45	0	7
TAP	45	48	5
TAP	45	72	4
TAP	45	120	6
STR	45	144	7
SCL	45	144	7	96	48	4
SCR	45	144	7	96	48	2
TAP	45	192	1
TAP	45	192	5
TAP	45	336	5
TAP	46	0	1
TAP	46	0	6
TAP	46	48	2
TAP	46	72	3
TAP	46	120	1
STR	46	144	0
SCL	46	144	0	96	48	5
SCR	46	144	0	96	48	3
TAP	46	192	2
TAP	46	192	6
TAP	47	0	6
TAP	47	24	4
TAP	47	48	5
TAP	47	96	2
TAP	47	144	1
TAP	47	144	3
STR	47	192	0
SCR	47	192	0	96	48	3
STR	47	240	4
SCR	47	240	4	96	48	7
XTP	47	288	0
XTP	47	336	4
XTP	48	0	3
TAP	48	48	2
TAP	48	48	6
TAP	48	96	1
TAP	48	96	5
TAP	48	144	0
TAP	48	144	4
STR	48	192	3
SCR	48	192	3	96	48	6
STR	48	192	7
SCR	48	192	7	96	48	2
BRK	48	288	3
BRK	48	288	7
HLD	49	0	1	72
HLD	49	72	2	72
TAP	49	144	3
TAP	49	192	3
TAP	49	192	4
TAP	49	240	4
TAP	49	240	5
TAP	49	288	4
TAP	49	288	5
TAP	49	336	3
TAP	49	336	4
HLD	50	0	2	72
HLD	50	72	1	72
TAP	50	144	0
TAP	50	192	0
TAP	50	192	7
TAP	50	240	6
TAP	50	240	7
TAP	50	288	5
TAP	50	288	6
TAP	50	336	4
TAP	50	336	5
HLD	51	0	3	72
HLD	51	72	2	72
TAP	51	144	1
HLD	51	192	7	72
HLD	51	264	6	72
TAP	51	336	5
HLD	52	0	4	72
HLD	52	72	5	72
TAP	52	144	6
TAP	52	192	7
TAP	52	240	0
TAP	52	288	2
STR	52	288	4
SCL	52	288	4	96	96	7
SV_	52	288	4	96	96	7
TAP	53	192	2
TAP	53	240	4
STR	53	288	3
SCR	53	288	3	96	96	0
SV_	53	288	3	96	96	0
TAP	53	288	5
TAP	54	144	2
TAP	54	192	2
TAP	54	240	3
TAP	54	288	4
TAP	54	336	5
HLD	55	0	5	72
HLD	55	72	6	72
TAP	55	144	7
HLD	55	192	2	72
HLD	55	264	1	72
TAP	55	336	0
HLD	56	0	2	72
HLD	56	72	3	72
TAP	56	144	4
STR	56	192	5
SCL	56	192	5	96	48	2
STR	57	0	0
SI_	57	0	0	96	48	3
TAP	57	48	3
TAP	57	96	0
TAP	57	96	4
TAP	57	216	5
TAP	57	240	4
TAP	57	288	3
TAP	57	288	6
STR	58	0	7
SI_	58	0	7	96	48	4
TAP	58	48	4
TAP	58	96	3
TAP	58	96	7
TAP	58	216	2
TAP	58	240	3
TAP	58	288	1
TAP	58	288	4
STR	59	0	0
SI_	59	0	0	96	48	3
TAP	59	48	3
TAP	59	96	0
TAP	59	96	4
TAP	59	216	5
TAP	59	240	4
TAP	59	288	3
TAP	59	288	5
STR	60	0	7
SI_	60	0	7	96	48	4
TAP	60	48	4
TAP	60	96	3
TAP	60	96	7
TAP	60	216	2
TAP	60	240	3
TAP	60	288	2
TAP	60	288	4
STR	61	0	1
SI_	61	0	1	96	48	5
TAP	61	48	5
TAP	61	96	1
TAP	61	96	6
TAP	61	216	6
TAP	61	240	7
TAP	61	288	0
TAP	61	288	5
TAP	62	0	4
TAP	62	48	2
TAP	62	96	1
TAP	62	96	5
TAP	62	144	0
TAP	62	168	0
TAP	62	216	1
TAP	62	216	7
TAP	62	264	2
TAP	62	264	6
TAP	62	336	5
TAP	62	360	4
TAP	63	0	5
TAP	63	48	2
TAP	63	72	3
TAP	63	96	2
TAP	63	144	5
TAP	63	168	4
TAP	63	192	6
TAP	63	240	2
TAP	63	264	3
STR	63	288	1
SI_	63	288	1	96	48	5
TAP	63	336	1
STR	64	0	0
SI_	64	0	0	96	48	4
TAP	64	48	0
STR	64	96	7
SI_	64	96	7	96	48	3
TAP	64	144	7
STR	64	192	6
SI_	64	192	6	96	48	2
TAP	64	240	6
TAP	64	288	0
BRK	64	336	0
TTP	65	0	2	E	0	M1
TTP	65	16	2	B	0	M1
TTP	65	32	3	E	0	M1
TTP	65	96	6	E	0	M1
TTP	65	112	5	B	0	M1
TTP	65	128	5	E	0	M1
TTP	65	192	1	B	0	M1
TTP	65	208	2	B	0	M1
TTP	65	224	3	E	0	M1
TTP	65	288	6	B	0	M1
TTP	65	304	5	B	0	M1
TTP	65	320	5	E	0	M1
TTP	66	0	1	E	0	M1
TTP	66	16	1	B	0	M1
TTP	66	32	2	E	0	M1
TTP	66	96	7	E	0	M1
TTP	66	112	6	B	0	M1
TTP	66	128	6	E	0	M1
TTP	66	192	3	E	0	M1
TTP	66	208	3	B	0	M1
TTP	66	224	4	B	0	M1
TTP	66	240	5	E	0	M1
TTP	66	288	0	C	1	M1
TAP	67	0	0
TAP	67	48	6
TAP	67	72	7
TAP	67	120	5
STR	67	144	4
SCL	67	144	4	96	48	1
SCR	67	144	4	96	48	7
TAP	67	192	2
TAP	67	192	6
TAP	67	336	6
TAP	68	0	2
TAP	68	0	5
TAP	68	48	1
TAP	68	72	0
TAP	68	120	2
STR	68	144	3
SCL	68	144	3	96	48	0
SCR	68	144	3	96	48	6
TAP	68	192	1
TAP	68	192	5
TAP	68	336	1
TAP	69	0	2
TAP	69	0	5
TAP	69	48	6
TAP	69	72	7
TAP	69	120	5
TAP	69	144	4
TAP	69	192	2
TAP	69	192	4
TAP	69	240	1
HLD	69	264	1	48
HLD	69	312	2	48
TAP	69	360	3
TAP	70	0	3
TAP	70	48	6
TAP	70	72	4
TAP	70	96	5
TAP	70	144	1
TAP	70	168	3
TAP	70	192	2
STR	70	240	5
SCL	70	240	5	96	48	2
TAP	70	264	4
TAP	70	288	6
XTP	70	336	0
XTP	71	0	0
TAP	71	48	1
TAP	71	72	0
TAP	71	120	2
STR	71	144	3
SCL	71	144	3	96	48	0
SCR	71	144	3	96	48	6
TAP	71	192	1
TAP	71	192	5
TAP	71	336	1
TAP	72	0	2
TAP	72	0	5
TAP	72	48	6
TAP	72	72	7
TAP	72	120	5
STR	72	144	4
SCL	72	144	4	96	48	1
SCR	72	144	4	96	48	7
TAP	72	192	2
TAP	72	192	6
TAP	73	0	1
TAP	73	24	3
TAP	73	48	2
TAP	73	96	6
TAP	73	144	5
TAP	73	144	7
STR	73	192	4
SCR	73	192	4	96	48	7
STR	73	240	0
SCR	73	240	0	96	48	3
XTP	73	288	4
XTP	73	336	0
XTP	74	0	7
TAP	74	48	2
TAP	74	48	6
TAP	74	96	1
TAP	74	96	5
TAP	74	144	0
TAP	74	144	4
TAP	74	192	3
HLD	74	192	7	96
BRK	74	288	0
TAP	75	0	2
TAP	75	0	6
TAP	75	48	1
TAP	75	72	0
TAP	75	120	2
STR	75	144	3
SV_	75	144	3	96	48	0
SV_	75	144	3	96	48	6
TAP	75	192	1
TAP	75	192	5
TAP	75	240	3
TAP	75	336	1
TAP	76	0	2
TAP	76	0	5
TAP	76	48	6
TAP	76	72	7
TAP	76	120	5
STR	76	144	4
SI_	76	144	4	96	48	1
SI_	76	144	4	96	48	7
TAP	76	192	2
TAP	76	192	6
TAP	76	240	4
TAP	77	0	2
TAP	77	0	5
TAP	77	48	6
TAP	77	72	7
TAP	77	120	4
TAP	77	144	3
TAP	77	168	4
TAP	77	192	2
TAP	77	216	5
TAP	77	240	2
TAP	77	264	5
TAP	77	288	3
TAP	77	312	4
TAP	77	336	3
TAP	77	360	4
TAP	78	0	1
TAP	78	48	1
TAP	78	72	3
TAP	78	96	2
TAP	78	144	6
TAP	78	168	4
TAP	78	192	5
STR	78	240	2
SCL	78	240	2	96	48	7
TAP	78	264	3
TAP	78	288	1
TAP	78	336	5
TAP	79	0	5
TAP	79	48	6
TAP	79	72	7
TAP	79	120	5
STR	79	144	4
SI_	79	144	4	96	48	7
SV_	79	144	4	96	48	1
TAP	79	192	2
TAP	79	192	6
TAP	79	240	4
TAP	79	336	6
TAP	80	0	2
TAP	80	0	5
TAP	80	48	1
TAP	80	72	0
TAP	80	120	2
STR	80	144	3
SCL	80	144	3	96	48	0
SV_	80	144	3	96	48	6
TAP	80	192	1
TAP	80	192	5
TAP	80	240	3
TAP	80	336	1
TAP	81	0	6
TAP	81	24	4
TAP	81	48	5
STR	81	96	3
SI_	81	96	3	96	48	0
STR	81	144	4
SI_	81	144	4	96	48	7
XTP	81	192	3
XTP	81	240	4
TAP	81	288	0
TAP	81	312	0
TAP	81	336	7
TAP	82	0	1
TAP	82	0	6
TAP	82	48	2
TAP	82	48	5
STR	82	96	3
SI_	82	96	3	96	48	6
STR	82	96	4
SI_	82	96	4	96	48	1
TAP	82	144	2
TAP	82	144	5
STR	82	288	0
SCR	82	288	0	96	480	7
TAP	82	288	7
BRK	83	0	4
TTP	83	96	6	E	0	M1
TTP	83	288	4	E	0	M1
TTP	84	96	2	E	0	M1
THO	84	192	0	192	C	1	M1
TTP	84	192	3	B	0	M1
TTP	84	192	4	B	0	M1
STR	84	288	7
SI_	84	288	7	96	48	3
BRK	85	0	7

T_REC_TAP	495
T_REC_BRK	8
T_REC_XTP	22
T_REC_HLD	35
T_REC_XHO	0
T_REC_STR	87
T_REC_BST	0
T_REC_XST	0
T_REC_TTP	34
T_REC_THO	1
T_REC_SLD	101
T_REC_ALL	783
T_NUM_TAP	638
T_NUM_BRK	8
T_NUM_HLD	36
T_NUM_SLD	101
T_NUM_ALL	783
T_JUDGE_TAP	646
T_JUDGE_HLD	102
T_JUDGE_SLD	101
T_JUDGE_ALL	849
TTM_EACHPAIRS	128
TTM_SCR_TAP	319000
TTM_SCR_BRK	20800
TTM_SCR_HLD	36000
TTM_SCR_SLD	151500
TTM_SCR_ALL	527300
TTM_SCR_S	510750
TTM_SCR_SS	526500
TTM_RAT_ACV	10015

